  0
SECTION
  2
HEADER
  9
$ACADVER
  1
AC1015
  9
$ACADMAINTVER
 70
    20
  9
$DWGCODEPAGE
  3
ANSI_936
  9
$INSBASE
 10
0.0
 20
0.0
 30
0.0
  9
$EXTMIN
 10
7223.807480760317
 20
-5932.151052615125
 30
0.0
  9
$EXTMAX
 10
7511.464085484208
 20
-5722.123199136609
 30
0.0
  9
$LIMMIN
 10
0.0
 20
0.0
  9
$LIMMAX
 10
12.0
 20
9.0
  9
$ORTHOMODE
 70
     1
  9
$REGENMODE
 70
     1
  9
$FILLMODE
 70
     1
  9
$QTEXTMODE
 70
     0
  9
$MIRRTEXT
 70
     0
  9
$LTSCALE
 40
1.0
  9
$ATTMODE
 70
     1
  9
$TEXTSIZE
 40
1.0
  9
$TRACEWID
 40
0.05
  9
$TEXTSTYLE
  7
STANDARD
  9
$CLAYER
  8
1
  9
$CELTYPE
  6
CONTINUOUS
  9
$CECOLOR
 62
   256
  9
$CELTSCALE
 40
1.0
  9
$DISPSILH
 70
     0
  9
$DIMSCALE
 40
1.0
  9
$DIMASZ
 40
2.2
  9
$DIMEXO
 40
0.2
  9
$DIMDLI
 40
0.1
  9
$DIMRND
 40
0.0
  9
$DIMDLE
 40
0.0
  9
$DIMEXE
 40
0.2
  9
$DIMTP
 40
0.01
  9
$DIMTM
 40
0.01
  9
$DIMTXT
 40
2.299999999999998
  9
$DIMCEN
 40
0.0
  9
$DIMTSZ
 40
0.0
  9
$DIMTOL
 70
     0
  9
$DIMLIM
 70
     0
  9
$DIMTIH
 70
     0
  9
$DIMTOH
 70
     0
  9
$DIMSE1
 70
     0
  9
$DIMSE2
 70
     0
  9
$DIMTAD
 70
     0
  9
$DIMZIN
 70
     0
  9
$DIMBLK
  1

  9
$DIMASO
 70
     1
  9
$DIMSHO
 70
     1
  9
$DIMPOST
  1

  9
$DIMAPOST
  1

  9
$DIMALT
 70
     0
  9
$DIMALTD
 70
     2
  9
$DIMALTF
 40
25.4
  9
$DIMLFAC
 40
1.0
  9
$DIMTOFL
 70
     1
  9
$DIMTVP
 40
0.0
  9
$DIMTIX
 70
     0
  9
$DIMSOXD
 70
     0
  9
$DIMSAH
 70
     0
  9
$DIMBLK1
  1

  9
$DIMBLK2
  1

  9
$DIMSTYLE
  2
222
  9
$DIMCLRD
 70
     6
  9
$DIMCLRE
 70
     6
  9
$DIMCLRT
 70
     0
  9
$DIMTFAC
 40
1.0
  9
$DIMGAP
 40
0.2
  9
$DIMJUST
 70
     0
  9
$DIMSD1
 70
     0
  9
$DIMSD2
 70
     0
  9
$DIMTOLJ
 70
     1
  9
$DIMTZIN
 70
     0
  9
$DIMALTZ
 70
     0
  9
$DIMALTTZ
 70
     0
  9
$DIMUPT
 70
     0
  9
$DIMDEC
 70
     0
  9
$DIMTDEC
 70
     0
  9
$DIMALTU
 70
     2
  9
$DIMALTTD
 70
     2
  9
$DIMTXSTY
  7
STANDARD
  9
$DIMAUNIT
 70
     0
  9
$DIMADEC
 70
     0
  9
$DIMALTRND
 40
0.0
  9
$DIMAZIN
 70
     0
  9
$DIMDSEP
 70
    46
  9
$DIMATFIT
 70
     3
  9
$DIMFRAC
 70
     0
  9
$DIMLDRBLK
  1

  9
$DIMLUNIT
 70
     2
  9
$DIMLWD
 70
    -2
  9
$DIMLWE
 70
    -2
  9
$DIMTMOVE
 70
     0
  9
$LUNITS
 70
     2
  9
$LUPREC
 70
     3
  9
$SKETCHINC
 40
0.1
  9
$FILLETRAD
 40
0.0
  9
$AUNITS
 70
     0
  9
$AUPREC
 70
     1
  9
$MENU
  1
.
  9
$ELEVATION
 40
0.0
  9
$PELEVATION
 40
0.0
  9
$THICKNESS
 40
0.0
  9
$LIMCHECK
 70
     0
  9
$CHAMFERA
 40
10.0
  9
$CHAMFERB
 40
10.0
  9
$CHAMFERC
 40
0.3
  9
$CHAMFERD
 40
0.7853981633974483
  9
$SKPOLY
 70
     0
  9
$TDCREATE
 40
2457035.581452037
  9
$TDUCREATE
 40
2457035.248118704
  9
$TDUPDATE
 40
2459010.604254259
  9
$TDUUPDATE
 40
2459010.270920926
  9
$TDINDWG
 40
7.3340877199
  9
$TDUSRTIMER
 40
7.3340875347
  9
$USRTIMER
 70
     1
  9
$ANGBASE
 50
0.0
  9
$ANGDIR
 70
     0
  9
$PDMODE
 70
     2
  9
$PDSIZE
 40
-0.01
  9
$PLINEWID
 40
0.0
  9
$SPLFRAME
 70
     0
  9
$SPLINETYPE
 70
     6
  9
$SPLINESEGS
 70
     8
  9
$HANDSEED
  5
256
  9
$SURFTAB1
 70
     6
  9
$SURFTAB2
 70
     6
  9
$SURFTYPE
 70
     6
  9
$SURFU
 70
     6
  9
$SURFV
 70
     6
  9
$UCSBASE
  2

  9
$UCSNAME
  2

  9
$UCSORG
 10
0.0
 20
0.0
 30
0.0
  9
$UCSXDIR
 10
1.0
 20
0.0
 30
0.0
  9
$UCSYDIR
 10
0.0
 20
1.0
 30
0.0
  9
$UCSORTHOREF
  2

  9
$UCSORTHOVIEW
 70
     0
  9
$UCSORGTOP
 10
0.0
 20
0.0
 30
0.0
  9
$UCSORGBOTTOM
 10
0.0
 20
0.0
 30
0.0
  9
$UCSORGLEFT
 10
0.0
 20
0.0
 30
0.0
  9
$UCSORGRIGHT
 10
0.0
 20
0.0
 30
0.0
  9
$UCSORGFRONT
 10
0.0
 20
0.0
 30
0.0
  9
$UCSORGBACK
 10
0.0
 20
0.0
 30
0.0
  9
$PUCSBASE
  2

  9
$PUCSNAME
  2

  9
$PUCSORG
 10
0.0
 20
0.0
 30
0.0
  9
$PUCSXDIR
 10
1.0
 20
0.0
 30
0.0
  9
$PUCSYDIR
 10
0.0
 20
1.0
 30
0.0
  9
$PUCSORTHOREF
  2

  9
$PUCSORTHOVIEW
 70
     0
  9
$PUCSORGTOP
 10
0.0
 20
0.0
 30
0.0
  9
$PUCSORGBOTTOM
 10
0.0
 20
0.0
 30
0.0
  9
$PUCSORGLEFT
 10
0.0
 20
0.0
 30
0.0
  9
$PUCSORGRIGHT
 10
0.0
 20
0.0
 30
0.0
  9
$PUCSORGFRONT
 10
0.0
 20
0.0
 30
0.0
  9
$PUCSORGBACK
 10
0.0
 20
0.0
 30
0.0
  9
$USERI1
 70
     0
  9
$USERI2
 70
     0
  9
$USERI3
 70
     0
  9
$USERI4
 70
     0
  9
$USERI5
 70
     0
  9
$USERR1
 40
0.0
  9
$USERR2
 40
0.0
  9
$USERR3
 40
0.0
  9
$USERR4
 40
0.0
  9
$USERR5
 40
2.5
  9
$WORLDVIEW
 70
     1
  9
$SHADEDGE
 70
     3
  9
$SHADEDIF
 70
    70
  9
$TILEMODE
 70
     1
  9
$MAXACTVP
 70
    64
  9
$PINSBASE
 10
0.0
 20
0.0
 30
0.0
  9
$PLIMCHECK
 70
     0
  9
$PEXTMIN
 10
-0.0090630292066862
 20
-0.0064082024693448
 30
-0.0015258207003583
  9
$PEXTMAX
 10
297.0090644122207
 20
210.0064091803581
 30
0.0000000349246037
  9
$PLIMMIN
 10
-3.282997899284788
 20
-3.280355610835618
  9
$PLIMMAX
 10
302.9838570634912
 20
213.2803597847586
  9
$UNITMODE
 70
     0
  9
$VISRETAIN
 70
     1
  9
$PLINEGEN
 70
     0
  9
$PSLTSCALE
 70
     1
  9
$TREEDEPTH
 70
  3020
  9
$CMLSTYLE
  2
STANDARD
  9
$CMLJUST
 70
     0
  9
$CMLSCALE
 40
1.0
  9
$PROXYGRAPHICS
 70
     1
  9
$MEASUREMENT
 70
     0
  9
$CELWEIGHT
370
    -1
  9
$ENDCAPS
280
     0
  9
$JOINSTYLE
280
     0
  9
$LWDISPLAY
290
     0
  9
$INSUNITS
 70
     0
  9
$HYPERLINKBASE
  1

  9
$STYLESHEET
  1

  9
$XEDIT
290
     1
  9
$CEPSNTYPE
380
     0
  9
$PSTYLEMODE
290
     1
  9
$FINGERPRINTGUID
  2
{0291D791-0E79-4CD7-9E45-042CC7D0E3D8}
  9
$VERSIONGUID
  2
{818958F0-D8F8-4DD2-AF77-00F3066EA0B6}
  9
$EXTNAMES
290
     1
  9
$PSVPSCALE
 40
0.0
  9
$OLESTARTUP
290
     0
  0
ENDSEC
  0
SECTION
  2
CLASSES
  0
CLASS
  1
ACDBDICTIONARYWDFLT
  2
AcDbDictionaryWithDefault
  3
ObjectDBX Classes
 90
        0
280
     0
281
     0
  0
CLASS
  1
TABLESTYLE
  2
AcDbTableStyle
  3
ObjectDBX Classes
 90
     4095
280
     0
281
     0
  0
CLASS
  1
VLO-VL
  2
vlo_VL
  3
VL|AutoLISP based application
 90
      129
280
     0
281
     0
  0
CLASS
  1
DICTIONARYVAR
  2
AcDbDictionaryVar
  3
ObjectDBX Classes
 90
        0
280
     0
281
     0
  0
CLASS
  1
MATERIAL
  2
AcDbMaterial
  3
ObjectDBX Classes
 90
     1024
280
     0
281
     0
  0
CLASS
  1
VISUALSTYLE
  2
AcDbVisualStyle
  3
ObjectDBX Classes
 90
     4095
280
     0
281
     0
  0
CLASS
  1
SCALE
  2
AcDbScale
  3
ObjectDBX Classes
 90
    33921
280
     1
281
     0
  0
CLASS
  1
MLEADERSTYLE
  2
AcDbMLeaderStyle
  3
ACDB_MLEADERSTYLE_CLASS
 90
    36863
280
     1
281
     0
  0
CLASS
  1
SORTENTSTABLE
  2
AcDbSortentsTable
  3
ObjectDBX Classes
 90
        0
280
     0
281
     0
  0
CLASS
  1
CELLSTYLEMAP
  2
AcDbCellStyleMap
  3
ObjectDBX Classes
 90
    33920
280
     1
281
     0
  0
CLASS
  1
DIMASSOC
  2
AcDbDimAssoc
  3
"AcDbDimAssoc|Product Desc:     AcDim ARX App For Dimension|Company:          Autodesk, Inc.|WEB Address:      www.autodesk.com"
 90
    32768
280
     0
281
     0
  0
CLASS
  1
SUN
  2
AcDbSun
  3
SCENEOE
 90
    33792
280
     0
281
     0
  0
CLASS
  1
ACAD_EVALUATION_GRAPH
  2
AcDbEvalGraph
  3
ObjectDBX Classes
 90
    33921
280
     0
281
     0
  0
CLASS
  1
ACAECUSTOBJ
  2
AcAeEditorObj
  3
AcAeEditorObj
 90
    33792
280
     1
281
     0
  0
CLASS
  1
ACDB_DYNAMICBLOCKPURGEPREVENTER_VERSION
  2
AcDbDynamicBlockPurgePreventer
  3
ObjectDBX Classes
 90
    33921
280
     0
281
     0
  0
CLASS
  1
ACDB_BLOCKREPRESENTATION_DATA
  2
AcDbBlockRepresentationData
  3
ObjectDBX Classes
 90
    33921
280
     0
281
     0
  0
CLASS
  1
SOLID_BACKGROUND
  2
AcDbSolidBackground
  3
SCENEOE
 90
    36863
280
     0
281
     0
  0
CLASS
  1
NPOCOLLECTION
  2
AcDbImpNonPersistentObjectsCollection
  3
ObjectDBX Classes
 90
    33921
280
     0
281
     0
  0
CLASS
  1
ACDBPLACEHOLDER
  2
AcDbPlaceHolder
  3
ObjectDBX Classes
 90
        0
280
     0
281
     0
  0
CLASS
  1
LAYOUT
  2
AcDbLayout
  3
ObjectDBX Classes
 90
        0
280
     0
281
     0
  0
ENDSEC
  0
SECTION
  2
TABLES
  0
TABLE
  2
VPORT
  5
24
102
{ACAD_XDICTIONARY
360
2B
102
}
330
0
100
AcDbSymbolTable
 70
     1
  0
VPORT
  5
25
330
24
100
AcDbSymbolTableRecord
100
AcDbViewportTableRecord
  2
*Active
 70
     0
 10
0.0
 20
0.0
 11
1.0
 21
1.0
 12
7459.07345435252
 22
-5840.215267730203
 13
0.0
 23
0.0
 14
1.0
 24
1.0
 15
0.0
 25
0.0
 16
0.0
 26
0.0
 36
1.0
 17
0.0
 27
0.0
 37
0.0
 40
275.7093133436841
 41
2.05939226519337
 42
50.0
 43
0.0
 44
0.0
 50
0.0
 51
0.0
 71
     0
 72
   100
 73
     1
 74
     1
 75
     0
 76
     0
 77
     0
 78
     0
281
     0
 65
     1
110
0.0
120
0.0
130
0.0
111
1.0
121
0.0
131
0.0
112
0.0
122
1.0
132
0.0
 79
     0
146
0.0
  0
ENDTAB
  0
TABLE
  2
LTYPE
  5
1F
330
0
100
AcDbSymbolTable
 70
     3
  0
LTYPE
  5
20
330
1F
100
AcDbSymbolTableRecord
100
AcDbLinetypeTableRecord
  2
BYBLOCK
 70
     0
  3

 72
    65
 73
     0
 40
0.0
  0
LTYPE
  5
21
330
1F
100
AcDbSymbolTableRecord
100
AcDbLinetypeTableRecord
  2
BYLAYER
 70
     0
  3

 72
    65
 73
     0
 40
0.0
  0
LTYPE
  5
E
330
1F
100
AcDbSymbolTableRecord
100
AcDbLinetypeTableRecord
  2
CONTINUOUS
 70
     0
  3

 72
    65
 73
     0
 40
0.0
  0
LTYPE
  5
DD
330
1F
100
AcDbSymbolTableRecord
100
AcDbLinetypeTableRecord
  2
CENTER2
 70
     0
  3
Center (.5x) ___ _ ___ _ ___ _ ___ _ ___ _ ___
 72
    65
 73
     4
 40
28.575
 49
19.05
 74
     0
 49
-3.174999999999998
 74
     0
 49
3.174999999999998
 74
     0
 49
-3.174999999999998
 74
     0
  0
LTYPE
  5
184
330
1F
100
AcDbSymbolTableRecord
100
AcDbLinetypeTableRecord
  2
CENTER
 70
     0
  3
____ _ ____ _ ____ _ ____
 72
    65
 73
     4
 40
47.4
 49
22.0
 74
     4
 75
     0
340
0
 46
0.0
 50
0.0
 44
0.0
 45
0.0
 49
-8.5
 74
     4
 75
     0
340
0
 46
0.0
 50
0.0
 44
0.0
 45
0.0
 49
8.5
 74
     4
 75
     0
340
0
 46
0.0
 50
0.0
 44
0.0
 45
0.0
 49
-8.5
 74
     4
 75
     0
340
0
 46
0.0
 50
0.0
 44
0.0
 45
0.0
  0
ENDTAB
  0
TABLE
  2
LAYER
  5
19
102
{ACAD_XDICTIONARY
360
1A
102
}
330
0
100
AcDbSymbolTable
 70
     3
  0
LAYER
  5
6
102
{ACAD_XDICTIONARY
360
7
102
}
330
19
100
AcDbSymbolTableRecord
100
AcDbLayerTableRecord
  2
0
 70
     0
 62
     7
  6
CONTINUOUS
370
    -3
390
9
  0
LAYER
  5
41
102
{ACAD_XDICTIONARY
360
42
102
}
330
19
100
AcDbSymbolTableRecord
100
AcDbLayerTableRecord
  2
1
 70
     0
 62
     7
  6
CONTINUOUS
370
    -3
390
9
  0
LAYER
  5
193
330
19
100
AcDbSymbolTableRecord
100
AcDbLayerTableRecord
  2
Defpoints
 70
     0
 62
     7
  6
CONTINUOUS
290
     0
370
    -3
390
9
  0
ENDTAB
  0
TABLE
  2
STYLE
  5
1C
330
0
100
AcDbSymbolTable
 70
     4
  0
STYLE
  5
1D
330
1C
100
AcDbSymbolTableRecord
100
AcDbTextStyleTableRecord
  2
STANDARD
 70
     0
 40
0.0
 41
1.0
 50
0.0
 71
     0
 42
1.0
  3
monotxt.shx
  4

  0
STYLE
  5
35
330
1C
100
AcDbSymbolTableRecord
100
AcDbTextStyleTableRecord
  2
SIMPLEX
 70
     0
 40
0.0
 41
1.0
 50
0.0
 71
     0
 42
3.0
  3
simplex.shx
  4

  0
STYLE
  5
6D
330
1C
100
AcDbSymbolTableRecord
100
AcDbTextStyleTableRecord
  2
arial
 70
     0
 40
0.0
 41
1.0
 50
0.0
 71
     0
 42
3.0
  3
arial.ttf
  4

1001
ACAD
1000
Arial
1071
       34
  0
STYLE
  5
38
330
1C
100
AcDbSymbolTableRecord
100
AcDbTextStyleTableRecord
  2
样式 1
 70
     0
 40
0.0
 41
1.0
 50
0.0
 71
     0
 42
2.5
  3
ARIALUNI.TTF
  4

1001
ACAD
1000
@Arial Unicode MS
1071
    34338
  0
ENDTAB
  0
TABLE
  2
VIEW
  5
22
330
0
100
AcDbSymbolTable
 70
     0
  0
ENDTAB
  0
TABLE
  2
UCS
  5
23
330
0
100
AcDbSymbolTable
 70
     0
  0
ENDTAB
  0
TABLE
  2
APPID
  5
2C
330
0
100
AcDbSymbolTable
 70
    12
  0
APPID
  5
2D
330
2C
100
AcDbSymbolTableRecord
100
AcDbRegAppTableRecord
  2
ACAD
 70
     0
  0
APPID
  5
12
330
2C
100
AcDbSymbolTableRecord
100
AcDbRegAppTableRecord
  2
ACAD_PSEXT
 70
     0
  0
APPID
  5
31
330
2C
100
AcDbSymbolTableRecord
100
AcDbRegAppTableRecord
  2
ACAD_DSTYLE_DIMJAG
 70
     0
  0
APPID
  5
32
330
2C
100
AcDbSymbolTableRecord
100
AcDbRegAppTableRecord
  2
ACAD_DSTYLE_DIMTALN
 70
     0
  0
APPID
  5
30
330
2C
100
AcDbSymbolTableRecord
100
AcDbRegAppTableRecord
  2
ACAD_DSTYLE_DIMBREAK
 70
     0
  0
APPID
  5
52
330
2C
100
AcDbSymbolTableRecord
100
AcDbRegAppTableRecord
  2
AcDbBlockRepETag
 70
     0
  0
APPID
  5
36
330
2C
100
AcDbSymbolTableRecord
100
AcDbRegAppTableRecord
  2
ACAD_DSTYLE_DIMJOGGED_JOGANGLE_SYMBOL
 70
     0
  0
APPID
  5
222
330
2C
100
AcDbSymbolTableRecord
100
AcDbRegAppTableRecord
  2
ACAD_DSTYLE_DIMEXT_LENGTH
 70
     0
  0
APPID
  5
223
330
2C
100
AcDbSymbolTableRecord
100
AcDbRegAppTableRecord
  2
ACAD_DSTYLE_DIM_LINETYPE
 70
     0
  0
APPID
  5
224
330
2C
100
AcDbSymbolTableRecord
100
AcDbRegAppTableRecord
  2
ACAD_DSTYLE_DIM_EXT1_LINETYPE
 70
     0
  0
APPID
  5
225
330
2C
100
AcDbSymbolTableRecord
100
AcDbRegAppTableRecord
  2
ACAD_DSTYLE_DIM_EXT2_LINETYPE
 70
     0
  0
APPID
  5
22C
330
2C
100
AcDbSymbolTableRecord
100
AcDbRegAppTableRecord
  2
AcDbAttr
 70
     0
  0
ENDTAB
  0
TABLE
  2
DIMSTYLE
  5
2E
330
0
100
AcDbSymbolTable
 70
     4
100
AcDbDimStyleTable
 71
     4
340
2F
340
33
340
34
340
37
  0
DIMSTYLE
105
2F
330
2E
100
AcDbSymbolTableRecord
100
AcDbDimStyleTableRecord
  2
222
 70
     0
 41
2.2
 42
0.2
 43
0.1
 44
0.2
 47
0.01
 48
0.01
 73
     0
 74
     0
140
2.299999999999998
141
0.0
147
0.2
172
     1
176
     6
177
     6
271
     0
272
     0
340
1D
1001
ACAD_DSTYLE_DIMBREAK
1070
   391
1040
0.1
1001
ACAD_DSTYLE_DIMJAG
1070
   388
1040
1.5
1001
ACAD_DSTYLE_DIMTALN
1070
   392
1070
     0
  0
DIMSTYLE
105
33
102
{ACAD_REACTORS
330
187
330
197
102
}
330
2E
100
AcDbSymbolTableRecord
100
AcDbDimStyleTableRecord
  2
ISO-25
 70
     0
 41
2.5
 42
0.625
 43
3.75
 44
1.25
 73
     0
 74
     0
 77
     1
 78
     8
140
2.5
141
2.5
143
0.03937007874016
147
0.625
171
     3
172
     1
271
     2
272
     2
274
     3
278
    44
283
     0
284
     8
340
1D
  0
DIMSTYLE
105
34
330
2E
100
AcDbSymbolTableRecord
100
AcDbDimStyleTableRecord
  2
DEGSON
 70
     0
 41
3.0
 42
0.0
 43
1.0
 44
1.0
 73
     0
 74
     0
 77
     1
 78
     9
140
3.5
141
1.0
143
0.03937007874016
147
1.0
171
     3
172
     1
176
   256
177
   256
178
   256
179
     1
271
     2
272
     2
274
     3
340
35
371
    -1
372
    -1
1001
ACAD_DSTYLE_DIMEXT_LENGTH
1070
   378
1040
1.25
1001
ACAD_DSTYLE_DIMJOGGED_JOGANGLE_SYMBOL
1070
   384
1040
1.570796326794896
1001
ACAD_DSTYLE_DIM_LINETYPE
1070
   380
1005
21
1001
ACAD_DSTYLE_DIM_EXT1_LINETYPE
1070
   381
1005
21
1001
ACAD_DSTYLE_DIM_EXT2_LINETYPE
1070
   382
1005
21
  0
DIMSTYLE
105
37
330
2E
100
AcDbSymbolTableRecord
100
AcDbDimStyleTableRecord
  2
12
 70
     0
 41
1.8
 42
0.1
 43
0.1
 44
0.1
 47
0.01
 48
0.01
 73
     0
 77
     1
140
2.0
141
0.05
147
0.2
172
     1
176
     3
177
     3
178
     3
271
     2
272
     2
340
38
371
    13
372
    13
1001
ACAD_DSTYLE_DIMEXT_LENGTH
1070
   378
1040
0.1
1001
ACAD_DSTYLE_DIMJOGGED_JOGANGLE_SYMBOL
1070
   384
1040
1.570796326794896
  0
ENDTAB
  0
TABLE
  2
BLOCK_RECORD
  5
1
330
0
100
AcDbSymbolTable
 70
     3
  0
BLOCK_RECORD
  5
2
102
{ACAD_XDICTIONARY
360
3
102
}
330
1
100
AcDbSymbolTableRecord
100
AcDbBlockTableRecord
  2
*MODEL_SPACE
340
10
  0
BLOCK_RECORD
  5
13
330
1
100
AcDbSymbolTableRecord
100
AcDbBlockTableRecord
  2
*PAPER_SPACE
340
16
  0
BLOCK_RECORD
  5
49
330
1
100
AcDbSymbolTableRecord
100
AcDbBlockTableRecord
  2
SGERGR
340
0
310
2800000020000000200000000100080000000000000400000000000000000000000000000000000000000000000080000080000000808000800000008000800080800000C0C0C000C0DCC000F0CAA6000020400000206000002080000020A0000020C0000020E00000400000004020000040400000406000004080000040A0
310
000040C0000040E00000600000006020000060400000606000006080000060A0000060C0000060E00000800000008020000080400000806000008080000080A0000080C0000080E00000A0000000A0200000A0400000A0600000A0800000A0A00000A0C00000A0E00000C0000000C0200000C0400000C0600000C0800000C0
310
A00000C0C00000C0E00000E0000000E0200000E0400000E0600000E0800000E0A00000E0C00000E0E00040000000400020004000400040006000400080004000A0004000C0004000E00040200000402020004020400040206000402080004020A0004020C0004020E000404000004040200040404000404060004040800040
310
40A0004040C0004040E00040600000406020004060400040606000406080004060A0004060C0004060E00040800000408020004080400040806000408080004080A0004080C0004080E00040A0000040A0200040A0400040A0600040A0800040A0A00040A0C00040A0E00040C0000040C0200040C0400040C0600040C08000
310
40C0A00040C0C00040C0E00040E0000040E0200040E0400040E0600040E0800040E0A00040E0C00040E0E00080000000800020008000400080006000800080008000A0008000C0008000E00080200000802020008020400080206000802080008020A0008020C0008020E00080400000804020008040400080406000804080
310
008040A0008040C0008040E00080600000806020008060400080606000806080008060A0008060C0008060E00080800000808020008080400080806000808080008080A0008080C0008080E00080A0000080A0200080A0400080A0600080A0800080A0A00080A0C00080A0E00080C0000080C0200080C0400080C0600080C0
310
800080C0A00080C0C00080C0E00080E0000080E0200080E0400080E0600080E0800080E0A00080E0C00080E0E000C0000000C0002000C0004000C0006000C0008000C000A000C000C000C000E000C0200000C0202000C0204000C0206000C0208000C020A000C020C000C020E000C0400000C0402000C0404000C0406000C0
310
408000C040A000C040C000C040E000C0600000C0602000C0604000C0606000C0608000C060A000C060C000C060E000C0800000C0802000C0804000C0806000C0808000C080A000C080C000C080E000C0A00000C0A02000C0A04000C0A06000C0A08000C0A0A000C0A0C000C0A0E000C0C00000C0C02000C0C04000C0C06000
310
C0C08000C0C0A000F0FBFF00A4A0A000808080000000FF0000FF000000FFFF00FF000000FF00FF00FFFF0000FFFFFF0000000000000000000000000000000000000000000000000000000000000000000000000000000000000000000000000000000000000000000000000000000000000000000000000000000000000000
310
00000000000000000000000000000000000000000000000000000000000000000000000000000000000000000000000000000000000000000000000000000000000000000000000000000000000000000000FF00FF000000FF000000000000FF000000000000000000000000000000FF000000FFFFFFFFFFFFFFFFFFFFFFFF
310
FFFFFFFFFFF9F9F9FFFFFFFFFFFFFFFF00000000FF000000000000000000000000000000FFFFFFFFFFFFFFFFFFFFFFFF000000FFFF000000000000000000000000000000FFFFFFFFFFFFFFFFFFFFFFFFFF000000FF000000000000000000000000000000FFFFFFFFFFF9FFFFFFFFFFFF00000000FF00000000000000000000
310
00000000000000000000000000000000FF000000FFFF0000000000000000000000000000000000000000000000000000FFFF000000FF0000000000000000000000000000000000000000000000000000FF000000FFFF0000000000000000000000000000000000000000000000000000FFFF000000FF000000000000000000
310
0000000000000000000000000000000000FF00000000FF0000000000000000000000000000000000000000000000000000FF000000FFFF0000000000000000000000000000000000000000000000000000FFFF000000FF0000000000000000000000000000000000000000000000000000FF000000FFFF0000000000000000
310
000000000000000000000000000000000000FFFF000000FF0000000000000000000000000000000000000000000000000000FF000000FFFF0000000000000000000000000000000000000000000000000000FFFF000000FF0000000000000000000000000000000000000000000000000000FF00000000FF00000000000000
310
00000000000000000000000000000000000000FF000000FFFF0000000000000000000000000000000000000000000000000000FF00000000FF00000000000000000000000000000000000000FFFFFFFFFFFFFFFF00000000FFFFFFFFFFFFFFFFFFFFFFFFFFFFFFFFFFFFFFFFFFFFFFFFFFFFFFFF000000FFFFFFFFFF00FF00
310
0000000000FF000000000000000000000000000000FF000000000000000000000000000000000000000000000000000000000000000000000000000000000000000000000000000000000000000000000000000000000000000000000000000000000000000000000000000000000000000000000000000000000000000000
310
0000000000000000000000000000000000000000000000000000000000000000000000000000000000000000000000000000000000000000
102
{BLKREFS
331
48
102
}
  0
BLOCK_RECORD
  5
188
330
1
100
AcDbSymbolTableRecord
100
AcDbBlockTableRecord
  2
*D1
340
0
  0
BLOCK_RECORD
  5
198
330
1
100
AcDbSymbolTableRecord
100
AcDbBlockTableRecord
  2
*D2
340
0
  0
ENDTAB
  0
ENDSEC
  0
SECTION
  2
BLOCKS
  0
BLOCK
  5
5
330
2
100
AcDbEntity
  8
0
100
AcDbBlockBegin
  2
*MODEL_SPACE
 70
     0
 10
0.0
 20
0.0
 30
0.0
  3
*MODEL_SPACE
  1

  0
ENDBLK
  5
F
330
2
100
AcDbEntity
  8
0
100
AcDbBlockEnd
  0
BLOCK
  5
14
330
13
100
AcDbEntity
 67
     1
  8
0
100
AcDbBlockBegin
  2
*PAPER_SPACE
 70
     0
 10
0.0
 20
0.0
 30
0.0
  3
*PAPER_SPACE
  1

  0
ENDBLK
  5
15
330
13
100
AcDbEntity
 67
     1
  8
0
100
AcDbBlockEnd
  0
BLOCK
  5
4A
330
49
100
AcDbEntity
  8
0
100
AcDbBlockBegin
  2
SGERGR
 70
     2
 10
0.0
 20
0.0
 30
0.0
  3
SGERGR
  1

  0
LINE
  5
4B
330
49
100
AcDbEntity
  8
0
370
    25
100
AcDbLine
 10
469.8129416172208
 20
-203.9124009210538
 30
0.0
 11
469.8129416172208
 21
-208.5706979210538
 31
0.0
  0
LINE
  5
4C
330
49
100
AcDbEntity
  8
0
370
    25
100
AcDbLine
 10
460.4963476172208
 20
-203.9124009210538
 30
0.0
 11
460.4963476172208
 21
-208.5706979210538
 31
0.0
  0
LINE
  5
4D
330
49
100
AcDbEntity
  8
0
370
    25
100
AcDbLine
 10
430.8163410172211
 20
-203.9124009210538
 30
0.0
 11
430.8163410172211
 21
-208.5706979210538
 31
0.0
  0
LINE
  5
4E
330
49
100
AcDbEntity
  8
0
370
    25
100
AcDbLine
 10
418.8378630172211
 20
-203.9124009210538
 30
0.0
 11
418.8378630172211
 21
-208.5706979210538
 31
0.0
  0
LINE
  5
4F
330
49
100
AcDbEntity
  8
0
370
    25
100
AcDbLine
 10
412.1831530172212
 20
-203.9124009210538
 30
0.0
 11
412.1831530172212
 21
-208.5706979210538
 31
0.0
  0
LINE
  5
50
330
49
100
AcDbEntity
  8
0
370
    25
100
AcDbLine
 10
412.1831530172212
 20
-208.5706979210538
 30
0.0
 11
482.0576080172205
 21
-208.5706979210538
 31
0.0
  0
TEXT
  5
51
330
49
100
AcDbEntity
  8
0
100
AcDbText
 10
204.586305657871
 20
-193.8385018071217
 30
0.0
 40
2.528789800000094
  1
FOR-1351 Rev.1.0
 41
0.9
  7
SIMPLEX
100
AcDbText
1001
AcDbBlockRepETag
1070
     1
1071
        0
1005
51
  0
LINE
  5
53
330
49
100
AcDbEntity
  8
0
100
AcDbLine
 10
459.4325776276027
 20
-378.264178313038
 30
0.0
 11
459.4325776276027
 21
-382.9224753130379
 31
0.0
1001
AcDbBlockRepETag
1070
     1
1071
        1
1005
53
  0
TEXT
  5
54
330
49
100
AcDbEntity
  8
0
100
AcDbText
 10
417.8396565174034
 20
-381.5915333130379
 30
0.0
 40
1.996413000000074
  1
CUSTOMER DRAWING
  7
SIMPLEX
100
AcDbText
1001
AcDbBlockRepETag
1070
     1
1071
        2
1005
54
  0
TEXT
  5
55
330
49
100
AcDbEntity
  8
0
100
AcDbText
 10
483.2659188615378
 20
-281.8393548775534
 30
0.0
 40
2.528789800000094
  1
E
  7
SIMPLEX
100
AcDbText
1001
AcDbBlockRepETag
1070
     1
1071
        3
1005
55
  0
TEXT
  5
56
330
49
100
AcDbEntity
  8
0
100
AcDbText
 10
483.2052956187781
 20
-306.5449657525546
 30
0.0
 40
2.528789800000094
  1
D
  7
SIMPLEX
100
AcDbText
1001
AcDbBlockRepETag
1070
     1
1071
        4
1005
56
  0
TEXT
  5
57
330
49
100
AcDbEntity
  8
0
100
AcDbText
 10
483.2052956187781
 20
-205.1619814257883
 30
0.0
 40
2.528789800000094
  1
H
  7
SIMPLEX
100
AcDbText
1001
AcDbBlockRepETag
1070
     1
1071
        5
1005
57
  0
TEXT
  5
58
330
49
100
AcDbEntity
  8
0
100
AcDbText
 10
483.1446723760191
 20
-232.0872589535607
 30
0.0
 40
2.528789800000094
  1
G
  7
SIMPLEX
100
AcDbText
1001
AcDbBlockRepETag
1070
     1
1071
        6
1005
58
  0
TEXT
  5
59
330
49
100
AcDbEntity
  8
0
100
AcDbText
 10
483.2659188615378
 20
-256.8509160007475
 30
0.0
 40
2.528789800000094
  1
F
  7
SIMPLEX
100
AcDbText
1001
AcDbBlockRepETag
1070
     1
1071
        7
1005
59
  0
TEXT
  5
5A
330
49
100
AcDbEntity
  8
0
100
AcDbText
 10
483.1446723760191
 20
-331.2505766275553
 30
0.0
 40
2.528789800000094
  1
C
  7
SIMPLEX
100
AcDbText
1001
AcDbBlockRepETag
1070
     1
1071
        8
1005
5A
  0
TEXT
  5
5B
330
49
100
AcDbEntity
  8
0
100
AcDbText
 10
483.2052956187781
 20
-354.4485650388324
 30
0.0
 40
2.528789800000094
  1
B 
  7
SIMPLEX
100
AcDbText
1001
AcDbBlockRepETag
1070
     1
1071
        9
1005
5B
  0
TEXT
  5
5C
330
49
100
AcDbEntity
  8
0
100
AcDbText
 10
483.0840491332601
 20
-383.4538786841294
 30
0.0
 40
2.528789800000094
  1
A
  7
SIMPLEX
100
AcDbText
1001
AcDbBlockRepETag
1070
     1
1071
       10
1005
5C
  0
LINE
  5
5D
330
49
100
AcDbEntity
  8
0
100
AcDbLine
 10
202.5597880173946
 20
-293.4166258130344
 30
0.0
 11
199.3770677725433
 21
-293.4166258130344
 31
0.0
1001
AcDbBlockRepETag
1070
     1
1071
       11
1005
5D
  0
TEXT
  5
5E
330
49
100
AcDbEntity
  8
0
100
AcDbText
 10
199.7752728615269
 20
-281.8393548775534
 30
0.0
 40
2.528789800000094
  1
E
  7
SIMPLEX
100
AcDbText
1001
AcDbBlockRepETag
1070
     1
1071
       12
1005
5E
  0
LINE
  5
5F
330
49
100
AcDbEntity
  8
0
100
AcDbLine
 10
202.5597880173946
 20
-318.1222366880356
 30
0.0
 11
199.3770677725433
 21
-318.1222366880356
 31
0.0
1001
AcDbBlockRepETag
1070
     1
1071
       13
1005
5F
  0
TEXT
  5
60
330
49
100
AcDbEntity
  8
0
100
AcDbText
 10
199.7146496187679
 20
-306.5449657525546
 30
0.0
 40
2.528789800000094
  1
D
  7
SIMPLEX
100
AcDbText
1001
AcDbBlockRepETag
1070
     1
1071
       14
1005
60
  0
LWPOLYLINE
  5
61
330
49
100
AcDbEntity
  8
0
100
AcDbPolyline
 90
        2
 70
     0
 43
0.0
 10
372.920364017401
 20
-373.6058813130376
 10
409.521269017403
 20
-373.6058813130376
1001
AcDbBlockRepETag
1070
     1
1071
       15
1005
61
  0
LINE
  5
62
330
49
100
AcDbEntity
  8
0
100
AcDbLine
 10
369.5930090174015
 20
-359.6309903130373
 30
0.0
 11
369.5930090174015
 21
-392.2390693130383
 31
0.0
1001
AcDbBlockRepETag
1070
     1
1071
       16
1005
62
  0
LINE
  5
63
330
49
100
AcDbEntity
  8
0
100
AcDbLine
 10
482.057608017405
 20
-359.6309903130373
 30
0.0
 11
369.5930090174015
 21
-359.6309903130373
 31
0.0
1001
AcDbBlockRepETag
1070
     1
1071
       17
1005
63
  0
LWPOLYLINE
  5
64
330
49
100
AcDbEntity
  8
0
100
AcDbPolyline
 90
        2
 70
     0
 43
0.0
 10
427.4081059779918
 20
-389.7096257122043
 10
413.8782563465765
 20
-389.7096257122043
1001
AcDbBlockRepETag
1070
     1
1071
       18
1005
64
  0
LWPOLYLINE
  5
65
330
49
100
AcDbEntity
  8
0
100
AcDbPolyline
 90
        2
 70
     0
 43
0.0
 10
372.920364017401
 20
-368.9475843130376
 10
482.057608017405
 20
-368.9475843130376
1001
AcDbBlockRepETag
1070
     1
1071
       19
1005
65
  0
LWPOLYLINE
  5
66
330
49
100
AcDbEntity
  8
0
100
AcDbPolyline
 90
        2
 70
     0
 43
0.0
 10
409.521269017403
 20
-359.6309903130373
 10
409.521269017403
 20
-392.2390693130383
1001
AcDbBlockRepETag
1070
     1
1071
       21
1005
66
  0
LWPOLYLINE
  5
67
330
49
100
AcDbEntity
  8
0
100
AcDbPolyline
 90
        3
 70
     0
 43
0.0
 10
468.7491716276035
 20
-378.264178313038
 10
468.7491716276026
 20
-387.5807723130374
 10
468.7491716276026
 20
-392.2390693130383
1001
AcDbBlockRepETag
1070
     1
1071
       22
1005
67
  0
LWPOLYLINE
  5
68
330
49
100
AcDbEntity
  8
0
100
AcDbPolyline
 90
        2
 70
     0
 43
0.0
 10
409.521269017403
 20
-387.5807723130383
 10
482.057608017405
 20
-387.5807723130374
1001
AcDbBlockRepETag
1070
     1
1071
       23
1005
68
  0
LWPOLYLINE
  5
69
330
49
100
AcDbEntity
  8
0
100
AcDbPolyline
 90
        3
 70
     0
 43
0.0
 10
372.920364017401
 20
-382.9224753130379
 10
409.521269017403
 20
-382.9224753130379
 10
482.057608017405
 20
-382.9224753130379
1001
AcDbBlockRepETag
1070
     1
1071
       24
1005
69
  0
LWPOLYLINE
  5
6A
330
49
100
AcDbEntity
  8
0
100
AcDbPolyline
 90
        3
 70
     0
 43
0.0
 10
372.920364017401
 20
-378.264178313038
 10
409.521269017403
 20
-378.264178313038
 10
482.057608017405
 20
-378.264178313038
1001
AcDbBlockRepETag
1070
     1
1071
       25
1005
6A
  0
LWPOLYLINE
  5
6B
330
49
100
AcDbEntity
  8
0
100
AcDbPolyline
 90
        2
 70
     0
 43
0.0
 10
432.1482666276014
 20
-392.2390693130383
 10
432.1482666276014
 20
-387.5807723130383
1001
AcDbBlockRepETag
1070
     1
1071
       26
1005
6B
  0
TEXT
  5
6C
330
49
100
AcDbEntity
  8
0
100
AcDbText
 10
441.1456883464969
 20
-363.995362565237
 30
0.0
 40
1.996413000000074
  1
宁波高松电子有限公司
  7
arial
100
AcDbText
1001
ACAD
1000
ACAD_MTEXT_DEFINED_HEIGHT_BEGIN
1070
    46
1040
0.0
1000
ACAD_MTEXT_DEFINED_HEIGHT_END
1001
AcDbBlockRepETag
1070
     1
1071
       34
1005
6C
  0
TEXT
  5
6E
330
49
100
AcDbEntity
  8
0
100
AcDbText
 10
431.9728447072911
 20
-367.7988970188526
 30
0.0
 40
1.996413000000074
  1
NINGBO DEGSON ELECTRICAL CO., LTD
 41
0.85
  7
arial
100
AcDbText
1001
AcDbBlockRepETag
1070
     1
1071
       35
1005
6E
  0
HATCH
  5
6F
330
49
100
AcDbEntity
  8
0
100
AcDbHatch
 10
0.0
 20
0.0
 30
0.0
210
0.0
220
0.0
230
1.0
  2
SOLID
 70
     1
 71
     0
 91
        8
 92
        7
 72
     0
 73
     1
 93
      139
 10
423.1517000815673
 20
-365.742885233878
 10
423.1042705990702
 20
-365.7323017956355
 10
423.055273199795
 20
-365.7236782533632
 10
423.0047078837432
 20
-365.7177985654498
 10
422.9525746509144
 20
-365.7142707527023
 10
422.8992654805033
 20
-365.7130948151193
 10
422.8616354778605
 20
-365.7134867943141
 10
422.8095022450323
 20
-365.7158386694791
 10
422.7589369289797
 20
-365.7205424198092
 10
422.7091555713168
 20
-365.7268140869169
 10
422.6605501512367
 20
-365.7354376291883
 10
422.6127286895453
 20
-365.7456290882383
 10
422.5664751446283
 20
-365.7581724224524
 10
422.5210055581018
 20
-365.7726756526376
 10
422.4767119091574
 20
-365.7891387787945
 10
422.4332022186025
 20
-365.8075618009216
 10
422.3908684656288
 20
-365.8283366982137
 10
422.3481427334591
 20
-365.851855449866
 10
422.3058089804871
 20
-365.8777260766823
 10
422.2646511650963
 20
-365.9051646202771
 10
422.2254532456763
 20
-365.9341710806475
 10
422.1874312638392
 20
-365.9651374369892
 10
422.1513691779737
 20
-365.9976717101081
 10
422.1164830296893
 20
-366.0317739000029
 10
422.0835567773747
 20
-366.067444006676
 10
422.0518064626458
 20
-366.1050740093178
 10
422.0220160438874
 20
-366.1442719287365
 10
422.0055529177297
 20
-366.1666147428091
 10
421.9792903117195
 20
-366.2058126622274
 10
421.9542036432903
 20
-366.2461865192299
 10
421.9306848916374
 20
-366.2877363138164
 10
421.9083420775705
 20
-366.3304620459817
 10
421.8875671802751
 20
-366.374755694927
 10
421.8679682205657
 20
-366.4202252814562
 10
421.8495451984408
 20
-366.4668708055619
 10
421.8326900930878
 20
-366.5146922672566
 10
421.8170109253215
 20
-366.5640816457253
 10
421.8028996743305
 20
-366.6146469617697
 10
421.7911402985037
 20
-366.6597245691097
 10
421.779772901872
 20
-366.7102898851599
 10
421.7703654012102
 20
-366.7600712428225
 10
421.7621338381331
 20
-366.8090686420987
 10
421.7562541502202
 20
-366.8576740621797
 10
421.7515503998901
 20
-366.9054955238721
 10
421.7491985247241
 20
-366.9529250063674
 10
421.7480225871413
 20
-366.9995705304813
 10
421.7480225871413
 20
-367.0054502183948
 10
421.7495905039195
 20
-367.0536636592806
 10
421.7535102958609
 20
-367.1018771001659
 10
421.7601739421624
 20
-367.150090541053
 10
421.7691894636281
 20
-367.1979120027426
 10
421.7805568602598
 20
-367.2457334644373
 10
421.7942761320582
 20
-367.2935549261292
 10
421.8107392582123
 20
-367.3409844086255
 10
421.8295542595351
 20
-367.3884138911243
 10
421.846017385692
 20
-367.4252599353804
 10
421.8683601997609
 20
-367.4668097299655
 10
421.8938388473833
 20
-367.5067916077728
 10
421.9220613493653
 20
-367.5452055688038
 10
421.9530277057073
 20
-367.5820516130589
 10
421.9867379164088
 20
-367.6169377613423
 10
422.0235839606639
 20
-367.6506479720442
 10
422.0635658384725
 20
-367.6827902659684
 10
422.1058995914445
 20
-367.712972663921
 10
422.1207948008249
 20
-367.7223801645828
 10
422.1599927202442
 20
-367.7455069370403
 10
422.2007585564415
 20
-367.7662818343323
 10
422.2430923094152
 20
-367.7843128772656
 10
422.2873859583597
 20
-367.7999920450338
 10
422.3332475240813
 20
-367.8133193376361
 10
422.3810689857726
 20
-367.8242947550743
 10
422.4304583642414
 20
-367.8325263181523
 10
422.4814156594884
 20
-367.8387979852591
 10
422.5343328507041
 20
-367.8423257980075
 10
422.5888179586982
 20
-367.8435017355896
 10
422.6280158781182
 20
-367.8431097563962
 10
422.6789731733641
 20
-367.8403659020369
 10
422.7291465102216
 20
-367.8360541308998
 10
422.7781439094959
 20
-367.8293904845987
 10
422.8263573503817
 20
-367.8207669423268
 10
422.8741788120742
 20
-367.810183504083
 10
422.9208243361844
 20
-367.7976401698684
 10
422.9662939227117
 20
-367.7827449604888
 10
423.011371530044
 20
-367.7662818343323
 10
423.0556651789883
 20
-367.747466833011
 10
423.0987828903507
 20
-367.7266919357184
 10
423.1411166433245
 20
-367.7039571424557
 10
423.1826664379094
 20
-367.67926245322
 10
423.2210803989409
 20
-367.6541757847918
 10
423.2594943599714
 20
-367.6263452620042
 10
423.2967323834217
 20
-367.5969468224398
 10
423.3327944692854
 20
-367.5655884869043
 10
423.3676806175727
 20
-367.5330542137837
 10
423.4009988490788
 20
-367.4985600446953
 10
423.433141143003
 20
-367.4621059796327
 10
423.4637155201506
 20
-367.4244759769909
 10
423.4931139597156
 20
-367.3848860783782
 10
423.5213364616973
 20
-367.3437282629862
 10
423.5483830260973
 20
-367.301002530819
 10
423.5738616737197
 20
-367.2563169026798
 10
423.5981643837613
 20
-367.2100633577638
 10
423.6056119884506
 20
-367.1951681483829
 10
423.6271708441307
 20
-367.1493065826626
 10
423.6467698038395
 20
-367.1030530377501
 10
423.6648008467746
 20
-367.056799492831
 10
423.6812639729296
 20
-367.0101539687225
 10
423.6961591823101
 20
-366.9631164654197
 10
423.7090944957172
 20
-366.916078962116
 10
423.7200699131562
 20
-366.8686494796157
 10
423.7294774138172
 20
-366.8212199971181
 10
423.7373169977018
 20
-366.7733985354252
 10
423.7435886648071
 20
-366.7251850945413
 10
423.7479004359438
 20
-366.6769716536528
 10
423.7502523111096
 20
-366.6283662335723
 10
423.7510362694973
 20
-366.5797608134953
 10
423.7510362694973
 20
-366.5652575833064
 10
423.7494683527211
 20
-366.5111644545072
 10
423.7451565815844
 20
-366.4590312216806
 10
423.7388849144781
 20
-366.4084659056293
 10
423.7302613722048
 20
-366.3590765271601
 10
423.7192859547675
 20
-366.3112550654664
 10
423.7059586621652
 20
-366.2653934997452
 10
423.6902794943962
 20
-366.220707871606
 10
423.6726404306573
 20
-366.1771981810511
 10
423.6522575125591
 20
-366.1356483864656
 10
423.6299146984893
 20
-366.0956665086578
 10
423.604828030062
 20
-366.0568605684316
 10
423.5777814656629
 20
-366.0200145241774
 10
423.5483830260955
 20
-365.9843444175044
 10
423.5166327113646
 20
-365.9502422276097
 10
423.5138888570071
 20
-365.9474983732498
 10
423.4797866671123
 20
-365.9153560793261
 10
423.4437245812459
 20
-365.885565660567
 10
423.4064865577964
 20
-365.8577351377785
 10
423.3676806175707
 20
-365.8326484693503
 10
423.3276987397621
 20
-365.8099136760867
 10
423.2857569659836
 20
-365.7895307579884
 10
423.2426392546221
 20
-365.7714997150562
 10
423.1979536264824
 20
-365.7562125264817
 97
        0
 92
       22
 72
     0
 73
     1
 93
       86
 10
423.0431218447747
 20
-366.0988023422115
 10
423.0854555977485
 20
-366.1180093227272
 10
423.1254374755572
 20
-366.1423120327677
 10
423.1630674781991
 20
-366.1709265139443
 10
423.1979536264824
 20
-366.2046367246444
 10
423.214024773445
 20
-366.2226677675781
 10
423.2410713378448
 20
-366.2583378742506
 10
423.2641981103023
 20
-366.2963598560859
 10
423.283797070013
 20
-366.3379096506728
 10
423.2998682169754
 20
-366.3818113204229
 10
423.3124115511891
 20
-366.4288488237257
 10
423.3214270726556
 20
-366.4786301813888
 10
423.3269147813743
 20
-366.5311553934111
 10
423.3284826981516
 20
-366.5864244597965
 10
423.3284826981516
 20
-366.6040635235345
 10
423.3265228021808
 20
-366.650709047643
 10
423.3222110310443
 20
-366.6977465509467
 10
423.3155473847427
 20
-366.7447840542504
 10
423.3065318632769
 20
-366.7922135367471
 10
423.2951644666435
 20
-366.840034998444
 10
423.281445194847
 20
-366.8878564601323
 10
423.2653740478845
 20
-366.9360699010199
 10
423.2469510257578
 20
-366.9846753211
 10
423.2261761284662
 20
-367.0332807411806
 10
423.2050092519783
 20
-367.0779663693189
 10
423.179530604355
 20
-367.1257878310135
 10
423.1528760191503
 20
-367.1704734591504
 10
423.1250454963618
 20
-367.2120232537354
 10
423.0956470567961
 20
-367.2508291939617
 10
423.0650726796501
 20
-367.2864993006339
 10
423.0333223649195
 20
-367.3194255529466
 10
423.0000041334131
 20
-367.3492159717043
 10
422.9592945136674
 20
-367.3803199508361
 10
422.9090649603586
 20
-367.4123246219715
 10
422.8647713114141
 20
-367.4358433736229
 10
422.819693704081
 20
-367.4550503541391
 10
422.7742241175547
 20
-367.4703375427124
 10
422.7283625518329
 20
-367.480920980956
 10
422.6821090069178
 20
-367.4875846272576
 10
422.6350715036142
 20
-367.4895445232278
 10
422.5880340003095
 20
-367.4879766064519
 10
422.5386446218408
 20
-367.4813129601499
 10
422.4916071185369
 20
-367.4703375427124
 10
422.4473134695918
 20
-367.4546583749448
 10
422.4053716958142
 20
-367.4346674360409
 10
422.3661737763941
 20
-367.4095807676112
 10
422.3297197113324
 20
-367.3801823280463
 10
422.2956175214385
 20
-367.3464721173464
 10
422.2658271026793
 20
-367.3100180522856
 10
422.2395644966671
 20
-367.270820132866
 10
422.2172216825983
 20
-367.2296623174739
 10
422.1987986604707
 20
-367.1861526269195
 10
422.184687409479
 20
-367.1406830403908
 10
422.1744959504302
 20
-367.0928615786993
 10
422.1686162625181
 20
-367.0430802210358
 10
422.1662643873513
 20
-366.9909469882064
 10
422.1670483457399
 20
-366.9513570895956
 10
422.1697922000994
 20
-366.9019677111251
 10
422.1744959504302
 20
-366.8533622910463
 10
422.181159596731
 20
-366.8051488501587
 10
422.1901751181976
 20
-366.7577193676611
 10
422.2007585564406
 20
-366.710681864357
 10
422.2136938698494
 20
-366.6644283194387
 10
422.2285890792298
 20
-366.6185667537183
 10
422.2458361637737
 20
-366.5734891463876
 10
422.2646511650955
 20
-366.5288035182466
 10
422.2858180415832
 20
-366.4849018484961
 10
422.308944814039
 20
-366.4413921579417
 10
422.3344234616632
 20
-366.3986664257723
 10
422.3614700260631
 20
-366.3563326727999
 10
422.3849887777159
 20
-366.3230144412919
 10
422.4171310716383
 20
-366.2818566259016
 10
422.4508412823396
 20
-366.2446186024535
 10
422.4857274306232
 20
-366.2109083917526
 10
422.522181495684
 20
-366.1807259937987
 10
422.5602034775219
 20
-366.1540714085936
 10
422.5994013969421
 20
-366.1309446361347
 10
422.6401672331385
 20
-366.1113456764256
 10
422.6825009861112
 20
-366.0952745294635
 10
422.726010676668
 20
-366.0831231744428
 10
422.771088284001
 20
-366.0741076529772
 10
422.8177338081103
 20
-366.068619944258
 10
422.8655552698027
 20
-366.0670520274812
 10
422.9012253764748
 20
-366.0682279650637
 10
422.9506147549436
 20
-366.0737156737824
 10
422.9980442374417
 20
-366.0839071328314
 97
        0
 92
        7
 72
     0
 73
     1
 93
       10
 10
423.8619663814551
 20
-367.8070476705293
 10
424.2566894300143
 20
-367.8070476705293
 10
424.5455780961383
 20
-366.4237530942024
 10
425.1014045935126
 20
-367.8070476705293
 10
425.4961276420698
 20
-367.8070476705293
 10
425.9253448597181
 20
-365.7479809634037
 10
425.5325817071296
 20
-365.7479809634037
 10
425.2448689785888
 20
-367.1257878310121
 10
424.6874745644389
 20
-365.7479809634037
 10
424.2915755782978
 20
-365.7479809634037
 97
        0
 92
        7
 72
     0
 73
     1
 93
      206
 10
420.577572713265
 20
-366.0678359858693
 10
420.6253941749555
 20
-366.0572525476263
 10
420.6802712621438
 20
-366.0509808805187
 10
420.7418119956336
 20
-366.0486290053541
 10
420.794337207656
 20
-366.0505889013248
 10
420.8476463780669
 20
-366.0568605684316
 10
420.8958598189536
 20
-366.0678359858693
 10
420.9393695095103
 20
-366.0831231744428
 10
420.9777834705418
 20
-366.1031141133476
 10
421.0159138823637
 20
-366.1309268843242
 10
421.0510835798568
 20
-366.1697505763608
 10
421.076170248285
 20
-366.2085565165867
 10
421.0953772288002
 20
-366.2516742279489
 10
421.1094884797921
 20
-366.3002796480296
 10
421.11772004287
 20
-366.3535888184406
 10
421.5234185088656
 20
-366.3351657963127
 10
421.5202826753128
 20
-366.2994956896413
 10
421.5128350706236
 20
-366.2489303735892
 10
421.5022516323797
 20
-366.2003249535083
 10
421.4889243397765
 20
-366.1540714085932
 10
421.4720692344262
 20
-366.1093857804549
 10
421.4520782955223
 20
-366.0666600482859
 10
421.4293435022582
 20
-366.0258942120909
 10
421.403080896247
 20
-365.9870882718646
 10
421.373682456682
 20
-365.9506342068039
 10
421.341540162757
 20
-365.9157480585204
 10
421.3058700560849
 20
-365.8828218062077
 10
421.2948946386486
 20
-365.8738062847409
 10
421.2607924487529
 20
-365.8483276371185
 10
421.2247303628863
 20
-365.8248088854657
 10
421.186316401855
 20
-365.8036420089794
 10
421.1459425448529
 20
-365.784435028464
 10
421.1032168126847
 20
-365.7675799231133
 10
421.0581392053518
 20
-365.7530766929276
 10
421.0114936812432
 20
-365.7409253379074
 10
420.9621043027728
 20
-365.7307338788587
 10
420.9111470075276
 20
-365.7228942949741
 10
420.8578378371166
 20
-365.7174065862559
 10
420.8021767915406
 20
-365.7142707527023
 10
420.7445558499929
 20
-365.7130948151193
 10
420.7414200164393
 20
-365.7130948151193
 10
420.6834070956984
 20
-365.7142707527023
 10
420.6277460501214
 20
-365.7177985654498
 10
420.5748288589056
 20
-365.7240702325572
 10
420.5238715636586
 20
-365.7323017956355
 10
420.4752661435787
 20
-365.7432772130728
 10
420.4290125986626
 20
-365.7562125264817
 10
420.3851109289125
 20
-365.7714997150551
 10
420.3431691551331
 20
-365.7895307579884
 10
420.3039712357139
 20
-365.8095216968927
 10
420.2671251914589
 20
-365.8322564901559
 10
420.2322390431745
 20
-365.8569511793903
 10
420.1997047700532
 20
-365.8843897229849
 10
420.1969609156966
 20
-365.8867415981498
 10
420.1620747674142
 20
-365.9220197256282
 10
420.1303244526843
 20
-365.9584737906871
 10
420.1024939298958
 20
-365.9972797309139
 10
420.0785831990496
 20
-366.0372616087212
 10
420.0582002809523
 20
-366.0795953616954
 10
420.0413451756002
 20
-366.123105052251
 10
420.0284098621914
 20
-366.1685746387784
 10
420.0193943407256
 20
-366.2160041212751
 10
420.0135146528118
 20
-366.2650015205518
 10
420.0119467360363
 20
-366.3155668366026
 10
420.0123387152298
 20
-366.3430053801972
 10
420.0166504863655
 20
-366.3943546546362
 10
420.0248820494435
 20
-366.4433520539124
 10
420.037425383659
 20
-366.4899975780213
 10
420.0542804890091
 20
-366.5338992477714
 10
420.0750553863016
 20
-366.5754490423565
 10
420.0785831990496
 20
-366.5817207094637
 10
420.1056297634486
 20
-366.6228785248545
 10
420.1362041405963
 20
-366.6609005066921
 10
420.1703063304921
 20
-366.6953946757822
 10
420.2079363331348
 20
-366.7267530113172
 10
420.2490941485256
 20
-366.7549755133005
 10
420.2753567545369
 20
-366.771438639455
 10
420.3090669652383
 20
-366.7906456199722
 10
420.3466969678801
 20
-366.8110285380708
 10
420.3886387416615
 20
-366.8325873937512
 10
420.4348922865701
 20
-366.8549302078209
 10
420.485065623433
 20
-366.8788409386662
 10
420.539942710624
 20
-366.9035356279023
 10
420.5983476105448
 20
-366.9294062547151
 10
420.6438171970858
 20
-366.9493971936222
 10
420.7057499097682
 20
-366.977619695605
 10
420.7594510593716
 20
-367.0030983432275
 10
420.8049206459008
 20
-367.0262251156855
 10
420.841766690154
 20
-367.0466080337842
 10
420.8703811713303
 20
-367.0642470975226
 10
420.8903721102351
 20
-367.0795342860965
 10
420.9166347162463
 20
-367.1046209545252
 10
420.9444652390348
 20
-367.1438188739453
 10
420.9609283651906
 20
-367.1869365853067
 10
420.9673916093715
 20
-367.2423358211404
 10
420.9570085732483
 20
-367.2970827388763
 10
420.9389775303152
 20
-367.3394164918505
 10
420.9111470075276
 20
-367.3782224320758
 10
420.8680951010009
 20
-367.4190320518042
 10
420.8256955431916
 20
-367.443682957507
 10
420.786105644578
 20
-367.4597541044692
 10
420.7410280372458
 20
-367.4722974386832
 10
420.6908547003886
 20
-367.4813129601499
 10
420.6348016756172
 20
-367.4864086896751
 10
420.5732609421284
 20
-367.4883685856457
 10
420.5289672931838
 20
-367.4871926480632
 10
420.4701704140533
 20
-367.4828808769266
 10
420.4172532228375
 20
-367.4746493138482
 10
420.3694317611443
 20
-367.4628899380227
 10
420.3267060289771
 20
-367.447210770255
 10
420.2894680055278
 20
-367.4280037897383
 10
420.2573257116037
 20
-367.4052689964756
 10
420.223615500903
 20
-367.3715587857746
 10
420.202056645222
 20
-367.3304009703834
 10
420.1879453942301
 20
-367.289635134186
 10
420.1769699767936
 20
-367.2406377349121
 10
420.1695223721034
 20
-367.1838007517536
 10
420.1648186217726
 20
-367.1187322055157
 10
419.7618640101363
 20
-367.139899082003
 10
419.7614720309428
 20
-367.1755691886738
 10
419.7634319269136
 20
-367.2277024215042
 10
419.768527656438
 20
-367.2778757583624
 10
419.7763672403224
 20
-367.3264811784416
 10
419.7869506785655
 20
-367.3735186817467
 10
419.8002779711678
 20
-367.4189882682727
 10
419.8167410973246
 20
-367.4628899380242
 10
419.8363400570342
 20
-367.5052236909964
 10
419.8531951623854
 20
-367.5354060889504
 10
419.8782818308136
 20
-367.5734280707875
 10
419.9076802703785
 20
-367.6090981774592
 10
419.9409985018863
 20
-367.6424164089653
 10
419.9778445461396
 20
-367.6733827653074
 10
420.018610382337
 20
-367.7019972464842
 10
420.0629040312823
 20
-367.7282598524953
 10
420.1115094513625
 20
-367.7521705833415
 10
420.1354201822077
 20
-367.7627540215848
 10
420.1773619559872
 20
-367.7796091269351
 10
420.2212636257382
 20
-367.7941123571209
 10
420.2663412330703
 20
-367.8070476705293
 10
420.3129867571806
 20
-367.8176311087727
 10
420.3615921772606
 20
-367.8266466302393
 10
420.4113735349237
 20
-367.8333102765409
 10
420.4627228093641
 20
-367.8384060060653
 10
420.5160319797752
 20
-367.8411498604246
 10
420.570517087769
 20
-367.8423257980075
 10
420.5889401098956
 20
-367.8419338188128
 10
420.6449931346669
 20
-367.8403659020369
 10
420.6994782426609
 20
-367.8364461100937
 10
420.7516114754879
 20
-367.8301744429873
 10
420.8021767915406
 20
-367.8219428799093
 10
420.8507822116207
 20
-367.8113594416653
 10
420.897427735731
 20
-367.798424128257
 10
420.9421133638698
 20
-367.7835289188774
 10
420.9852310752303
 20
-367.7666738135263
 10
421.0263888906211
 20
-367.747466833011
 10
421.0651948308477
 20
-367.7259079773298
 10
421.1024328542961
 20
-367.7019972464842
 10
421.1377109817739
 20
-367.6765185988612
 10
421.1714211924753
 20
-367.6482960968797
 10
421.2078752575353
 20
-367.6134099485949
 10
421.2415854682357
 20
-367.5761719251468
 10
421.2721598453843
 20
-367.5381499433083
 10
421.2988144305899
 20
-367.4981680655005
 10
421.3219412030476
 20
-367.4574022293045
 10
421.341540162757
 20
-367.4150684763304
 10
421.3576113097197
 20
-367.371558785775
 10
421.3701546439351
 20
-367.326481178442
 10
421.3787781862064
 20
-367.2802276335265
 10
421.3842658949251
 20
-367.2324061718341
 10
421.3858338117025
 20
-367.1834087725589
 10
421.3858338117025
 20
-367.1685135631792
 10
421.3826979781488
 20
-367.116772309545
 10
421.3748583942651
 20
-367.0677749102702
 10
421.3630990184391
 20
-367.0211293861612
 10
421.347419850671
 20
-366.9768357372168
 10
421.3270369325737
 20
-366.9348939634373
 10
421.3027342225323
 20
-366.8949120856287
 10
421.2741197413552
 20
-366.8576740621802
 10
421.2415854682366
 20
-366.8223959347024
 10
421.2317859883805
 20
-366.813380413234
 10
421.2086592159238
 20
-366.7941734327201
 10
421.1808286931362
 20
-366.7737905146219
 10
421.1482944200168
 20
-366.752623638135
 10
421.1110563965694
 20
-366.7302808240661
 10
421.0691146227899
 20
-366.7067620724133
 10
421.0224690986806
 20
-366.6820673831789
 10
420.9715118034337
 20
-366.6565887355559
 10
420.9154587786623
 20
-366.6303261295443
 10
420.8547020035629
 20
-366.6024956067572
 10
420.7892414781334
 20
-366.5738811255796
 10
420.7257408486712
 20
-366.5456586235973
 10
420.6685118863179
 20
-366.5190040383923
 10
420.6183385494605
 20
-366.4943093491578
 10
420.5744368797095
 20
-366.471182576699
 10
420.5379828146496
 20
-366.4496237210187
 10
420.5078004166971
 20
-366.4300247613097
 10
420.4846736442394
 20
-366.4123856975707
 10
420.4670345804998
 20
-366.3959225714139
 10
420.4388120785178
 20
-366.3579005895767
 10
420.4215649939733
 20
-366.3147828782143
 10
420.4160772852547
 20
-366.2661774581338
 10
420.4192131188082
 20
-366.2301153722678
 10
420.4325404114105
 20
-366.185821723323
 10
420.4568431214511
 20
-366.1458398455156
 10
420.4965920622298
 20
-366.1056442874237
 10
420.5368068770676
 20
-366.0827311952489
 97
        0
 92
        7
 72
     0
 73
     1
 93
      190
 10
418.6012136161143
 20
-366.0701878610348
 10
418.6494270570001
 20
-366.0623482771506
 10
418.6984244562763
 20
-366.0572525476263
 10
418.7485977931327
 20
-366.0556846308495
 10
418.768980711231
 20
-366.0560766100439
 10
418.8215059232534
 20
-366.0599964019852
 10
418.8712872809174
 20
-366.0678359858693
 10
418.9179328050268
 20
-366.0803793200835
 10
418.9614424955824
 20
-366.0972344254346
 10
419.0026003109732
 20
-366.1187932811154
 10
419.0406222928112
 20
-366.1442719287383
 10
419.0574773981616
 20
-366.1579912005354
 10
419.090011671281
 20
-366.1893495360714
 10
419.1194101108457
 20
-366.2246276635492
 10
419.1460646960504
 20
-366.2642175621636
 10
419.1695834477021
 20
-366.3077272527194
 10
419.1899663658005
 20
-366.3551567352179
 10
419.2076054295393
 20
-366.4068979888507
 10
419.6019364989042
 20
-366.3618203815181
 10
419.5917450398546
 20
-366.3202705869322
 10
419.5772418096693
 20
-366.2693132916879
 10
419.5607786835134
 20
-366.2203158924135
 10
419.5419636821916
 20
-366.1736703683018
 10
419.5211887848991
 20
-366.128984740164
 10
419.4980620124415
 20
-366.0866509871908
 10
419.4733673232067
 20
-366.0466691093825
 10
419.4459287796144
 20
-366.0086471275458
 10
419.416922319243
 20
-365.9729770208723
 10
419.3855639837056
 20
-365.9392668101726
 10
419.3522457521994
 20
-365.9079084746363
 10
419.3169676247215
 20
-365.8789020142658
 10
419.3005044985628
 20
-365.8667506592451
 10
419.264050433505
 20
-365.8420559700112
 10
419.2260284516668
 20
-365.8197131559418
 10
419.186046573859
 20
-365.7993302378431
 10
419.1441048000796
 20
-365.78129919491
 10
419.1005951095238
 20
-365.7652280479478
 10
419.0551255229975
 20
-365.7515087761512
 10
419.0076960404976
 20
-365.7397494003253
 10
418.9586986412232
 20
-365.7299499204701
 10
418.9077413459781
 20
-365.7225023157803
 10
418.8552161339548
 20
-365.7174065862559
 10
418.8007310259616
 20
-365.7142707527023
 10
418.7442860219961
 20
-365.7130948151193
 10
418.7199833119566
 20
-365.7130948151193
 10
418.668242058322
 20
-365.7150547110905
 10
418.6172847630768
 20
-365.7189745030332
 10
418.5671114262194
 20
-365.7252461701396
 10
418.5181140269442
 20
-365.7330857540233
 10
418.4702925652518
 20
-365.742885233878
 10
418.4236470411423
 20
-365.7550365888983
 10
418.3777854754215
 20
-365.7691478398897
 10
418.3327078680886
 20
-365.7852189868522
 10
418.2888061983375
 20
-365.803250029785
 10
418.2460804661696
 20
-365.8232409686893
 10
418.2045306715854
 20
-365.8451918035644
 10
418.1637648353881
 20
-365.8694945136053
 10
418.1237829575811
 20
-365.8957571196156
 10
418.1018321227047
 20
-365.9114362873844
 10
418.0642021200628
 20
-365.94005076856
 10
418.0281400341955
 20
-365.9702331665136
 10
417.9932538859111
 20
-366.0019834812442
 10
417.9595436752114
 20
-366.0356936919452
 10
417.9274013812873
 20
-366.0705798402282
 10
417.8964350249443
 20
-366.1074258844847
 10
417.8670365853803
 20
-366.1458398455147
 10
417.8388140833995
 20
-366.185821723323
 10
417.8117675189986
 20
-366.2273715179085
 10
417.7858968921809
 20
-366.2704892292695
 10
417.7615941821413
 20
-366.3151748574087
 10
417.738467409682
 20
-366.3614284023261
 10
417.7184937639792
 20
-366.4060967372634
 10
417.6973095942911
 20
-366.4566793465147
 10
417.6800625097476
 20
-366.5029328914293
 10
417.6643833419785
 20
-366.5495784155396
 10
417.6502720909883
 20
-366.5966159188433
 10
417.6381207359671
 20
-366.64404540134
 10
417.6271453185307
 20
-366.6918668630338
 10
417.6181297970633
 20
-366.7396883247274
 10
417.6106821923739
 20
-366.7882937448049
 10
417.6048025044609
 20
-366.8368991648876
 10
417.6008827125197
 20
-366.886288543355
 10
417.5981388581594
 20
-366.9356779218247
 10
417.5973548997716
 20
-366.9854592794886
 10
417.5985308373538
 20
-367.0348486579555
 10
417.6012746917129
 20
-367.0889417867575
 10
417.6067624004316
 20
-367.1410750195864
 10
417.6142100051211
 20
-367.1920323148312
 10
417.6236175057828
 20
-367.2410297141073
 10
417.6357688608021
 20
-367.2884591966026
 10
417.6498801117941
 20
-367.3339287831309
 10
417.6659512587557
 20
-367.3778304528818
 10
417.6843742808824
 20
-367.4201642058548
 10
417.7051491781766
 20
-367.4609300420522
 10
417.7278839714398
 20
-367.4997359822774
 10
417.752970639868
 20
-367.5369740057277
 10
417.7804091834622
 20
-367.572644112398
 10
417.8098076230271
 20
-367.6067463022937
 10
417.841557937757
 20
-367.6388885962178
 10
417.8752681484593
 20
-367.6694629733666
 10
417.9023147128582
 20
-367.6910218290473
 10
417.9368088819483
 20
-367.714932559893
 10
417.9736549262024
 20
-367.7372753739619
 10
418.0128528456216
 20
-367.7572663128663
 10
418.0540106610141
 20
-367.7749053766051
 10
418.0971283723748
 20
-367.7905845443728
 10
418.1425979589021
 20
-367.8043038161695
 10
418.1900274414001
 20
-367.8160631919959
 10
418.2398087990632
 20
-367.8254706926564
 10
418.2919420318913
 20
-367.8325263181523
 10
418.3460351606909
 20
-367.8380140268705
 10
418.4024801646565
 20
-367.8411498604246
 10
418.4608850645909
 20
-367.8423257980075
 10
418.5063546511181
 20
-367.8415418396189
 10
418.5557440295879
 20
-367.8395819436478
 10
418.6047414288614
 20
-367.8356621517058
 10
418.6537388281366
 20
-367.8305664221807
 10
418.7023442482177
 20
-367.8242947550743
 10
418.7509496682987
 20
-367.8160631919959
 10
418.7995550883797
 20
-367.806655691335
 10
418.8477685292655
 20
-367.7956802738972
 10
418.8955899909577
 20
-367.7831369396832
 10
418.9434114526492
 20
-367.7690256886926
 10
418.9888810391766
 20
-367.7545224585065
 10
419.0394463552292
 20
-367.7368833947672
 10
419.0884437545037
 20
-367.7184603726406
 10
419.1354812578092
 20
-367.6992533921248
 10
419.1805588651414
 20
-367.67926245322
 10
419.2236765765008
 20
-367.6584875559283
 10
419.2652263710878
 20
-367.6365367210528
 10
419.304424290506
 20
-367.6141939069835
 10
419.3420542931497
 20
-367.5906751553311
 10
419.5274604520063
 20
-366.7075460308029
 10
418.6067013248328
 20
-366.7075460308029
 10
418.5349691322953
 20
-367.0513117841137
 10
419.0602212525218
 20
-367.0513117841137
 10
418.9971126022546
 20
-367.3574475347836
 10
418.9837853096523
 20
-367.3641111810848
 10
418.9426274942616
 20
-367.3833181616001
 10
418.8987258245123
 20
-367.4013492045333
 10
418.8516883212078
 20
-367.418204309884
 10
418.8022989427381
 20
-367.434275456847
 10
418.7497737307138
 20
-367.4487786870318
 10
418.7137116448493
 20
-367.4581861876923
 10
418.6643222663806
 20
-367.46916160513
 10
418.6153248671051
 20
-367.4773931682084
 10
418.5667194470243
 20
-367.4832728561209
 10
418.5185060061384
 20
-367.4871926480632
 10
418.4706845444461
 20
-367.4883685856457
 10
418.4232550619481
 20
-367.4868006688689
 10
418.3699458915371
 20
-367.4813129601499
 10
418.3201645338731
 20
-367.4719054594894
 10
418.2743029681533
 20
-367.4581861876923
 10
418.2315772359843
 20
-367.4405471239534
 10
418.1927712957595
 20
-367.4189882682727
 10
418.1571011890865
 20
-367.3931176414553
 10
418.1253508743566
 20
-367.3633272226966
 10
418.1120235817543
 20
-367.3488239925109
 10
418.0877208717137
 20
-367.3158977401981
 10
418.0661620160335
 20
-367.279051695944
 10
418.0481309730994
 20
-367.2386778389409
 10
418.0336277429151
 20
-367.1943841899961
 10
418.0222603462826
 20
-367.1465627283041
 10
418.0140287832045
 20
-367.09482147467
 10
418.0089330536802
 20
-367.0391604290931
 10
418.0072644450001
 20
-366.976170451428
 10
418.0085410744858
 20
-366.9199987540569
 10
418.0116769080394
 20
-366.8694334380071
 10
418.0167726375638
 20
-366.8196520803448
 10
418.0234362838644
 20
-366.7702627018734
 10
418.0324518053311
 20
-366.722049260989
 10
418.0430352435752
 20
-366.6746197784896
 10
418.0555785777904
 20
-366.627974254377
 10
418.0696898287806
 20
-366.5821126886576
 10
418.0861529549373
 20
-366.5370350813242
 10
418.1041839978706
 20
-366.4923494531858
 10
418.1233909783858
 20
-366.4507996586026
 10
418.1476936884264
 20
-366.4045461136866
 10
418.1743482736319
 20
-366.3610364231303
 10
418.2025707756156
 20
-366.3202705869339
 10
418.2327531735673
 20
-366.2830325634851
 10
418.2645034882971
 20
-366.2481464152007
 10
418.2986056781929
 20
-366.2167880796646
 10
418.3346677640592
 20
-366.1881735984885
 10
418.3722977667021
 20
-366.1623029716716
 10
418.3766095378386
 20
-366.1599510965066
 10
418.4193352700048
 20
-366.1356483864656
 10
418.4632369397558
 20
-366.1144815099792
 10
418.5083145470898
 20
-366.096450467046
 10
418.5541761128106
 20
-366.081555257666
 97
        0
 92
        7
 72
     0
 73
     1
 93
       12
 10
417.4276279086824
 20
-366.0921386959093
 10
417.499360101222
 20
-365.7479809634037
 10
415.9733850982056
 20
-365.7479809634037
 10
415.5437759013648
 20
-367.8070476705293
 10
417.1512825767731
 20
-367.8070476705293
 10
417.2241907068936
 20
-367.4628899380227
 10
416.0266942686166
 20
-367.4628899380227
 10
416.1560474027028
 20
-366.9039276070953
 10
417.2214468525353
 20
-366.9039276070953
 10
417.2927870658786
 20
-366.5597698745887
 10
416.2273876160461
 20
-366.5597698745887
 10
416.3257743937911
 20
-366.0921386959093
 97
        0
 92
        7
 72
     0
 73
     1
 93
       76
 10
414.6504553177854
 20
-365.7499408593744
 10
414.5963621889858
 20
-365.7487649217919
 10
414.5332535387196
 20
-365.7483729425972
 10
414.4603454085982
 20
-365.7479809634037
 10
413.9056948488078
 20
-365.7479809634037
 10
413.474909714383
 20
-367.8070476705293
 10
414.2165343498072
 20
-367.8070476705293
 10
414.2796430000734
 20
-367.8062637121407
 10
414.3388318583975
 20
-367.8046957953643
 10
414.3937089455849
 20
-367.8023439201989
 10
414.4446662408308
 20
-367.7988161074513
 10
414.4913117649402
 20
-367.7945043363151
 10
414.5340374971074
 20
-367.78940860679
 10
414.5720594789445
 20
-367.7831369396832
 10
414.6061616688403
 20
-367.7760813141877
 10
414.6371280251831
 20
-367.7682417303031
 10
414.6888692788169
 20
-367.7533465209244
 10
414.7382586572867
 20
-367.7368833947676
 10
414.7856881397847
 20
-367.71846037264
 10
414.8303737679233
 20
-367.6984694337361
 10
414.8730995000906
 20
-367.676910578055
 10
414.9130813778984
 20
-367.6537838055974
 10
414.9511033597353
 20
-367.6286971371687
 10
414.9867734664066
 20
-367.6020425519642
 10
415.0102922180593
 20
-367.582835571447
 10
415.0451783663438
 20
-367.5522611943002
 10
415.0788885770444
 20
-367.5197269211808
 10
415.1110308709684
 20
-367.4852327520921
 10
415.1423892065058
 20
-367.4487786870313
 10
415.1725716044564
 20
-367.4107567051952
 10
415.2019700440233
 20
-367.3707748273864
 10
415.2298005668116
 20
-367.328833053607
 10
415.2564551520172
 20
-367.284931383856
 10
415.2823257788339
 20
-367.2394617973286
 10
415.3066284888726
 20
-367.1920323148293
 10
415.3144680727582
 20
-367.1763531470638
 10
415.3332830740801
 20
-367.1336274148985
 10
415.3505301586236
 20
-367.0905097035352
 10
415.3662093263928
 20
-367.0458240753959
 10
415.3803205773828
 20
-367.0007464680621
 10
415.3924719324022
 20
-366.9541009439559
 10
415.4034473498414
 20
-366.9070634406489
 10
415.412462871308
 20
-366.858458020567
 10
415.4199104759964
 20
-366.8090686421002
 10
415.4257901639112
 20
-366.7588953052423
 10
415.4297099558515
 20
-366.7075460308029
 10
415.4320618310165
 20
-366.6554127979738
 10
415.4328457894061
 20
-366.6021036275643
 10
415.4324538102119
 20
-366.5593778953948
 10
415.4297099558524
 20
-366.5080286209577
 10
415.4253981847158
 20
-366.4582472632933
 10
415.4191265176076
 20
-366.4096418432095
 10
415.4108949545307
 20
-366.3626043399077
 10
415.400703495481
 20
-366.316742774186
 10
415.3865922444902
 20
-366.2661774581338
 10
415.3705210975275
 20
-366.2183559964415
 10
415.3524900545953
 20
-366.1724944307207
 10
415.3321071364961
 20
-366.1289847401645
 10
415.309372343233
 20
-366.0878269247746
 10
415.2952610922421
 20
-366.0654841107048
 10
415.2666466110649
 20
-366.0239343161197
 10
415.2356802547227
 20
-365.9855203550878
 10
415.202754002411
 20
-365.9498502484162
 10
415.1678678541275
 20
-365.9165320169087
 10
415.1549325407195
 20
-365.9059485786656
 10
415.1153426421051
 20
-365.8765501391004
 10
415.07379284752
 20
-365.8498955538949
 10
415.0302831569633
 20
-365.8267687814373
 10
414.9852055496311
 20
-365.8071698217276
 10
414.9522792973185
 20
-365.7954104459018
 10
414.906809710791
 20
-365.7816911741047
 10
414.8589882490996
 20
-365.7703237774732
 10
414.8088149122422
 20
-365.7617002351999
 10
414.7562897002179
 20
-365.7550365888983
 10
414.7308110525955
 20
-365.7530766929276
 10
414.6955329251186
 20
-365.7511167969565
 97
        0
 92
       22
 72
     0
 73
     1
 93
       51
 10
414.6430077130952
 20
-366.0929226542976
 10
414.6908291747876
 20
-366.0976264046285
 10
414.7304190734021
 20
-366.1046820301244
 10
414.7621693881318
 20
-366.1133055723963
 10
414.7950956404447
 20
-366.1270248441933
 10
414.8346855390581
 20
-366.1505435958456
 10
414.8719235625076
 20
-366.1803340146048
 10
414.9060257524032
 20
-366.2167880796646
 10
414.9373840879388
 20
-366.2595138118327
 10
414.9558071100654
 20
-366.2924400641454
 10
414.9714862778337
 20
-366.3308540251768
 10
414.9848135704369
 20
-366.3735797573445
 10
414.9946130502912
 20
-366.4210092398416
 10
415.0020606549815
 20
-366.4727504934772
 10
415.0063724261181
 20
-366.528803518248
 10
415.0075483637
 20
-366.5895602933488
 10
415.0075483637
 20
-366.6064153986945
 10
415.0059804469227
 20
-366.6601165483034
 10
415.0024526341749
 20
-366.712641760329
 10
414.9969649254571
 20
-366.76359905557
 10
414.9895173207668
 20
-366.8129884340419
 10
414.9797178409107
 20
-366.8604179165409
 10
414.9683504442799
 20
-366.9066714614555
 10
414.9550231516768
 20
-366.9513570895956
 10
414.9393439839094
 20
-366.9944748009566
 10
414.9220968993658
 20
-367.0360245955403
 10
414.9095535651503
 20
-367.0630711599401
 10
414.8852508551098
 20
-367.1105006424373
 10
414.8597722074873
 20
-367.1555782497708
 10
414.8327256430874
 20
-367.1975200235511
 10
414.8045031411046
 20
-367.237109922165
 10
414.7751047015408
 20
-367.2739559664183
 10
414.7441383451978
 20
-367.3080581563149
 10
414.7116040720793
 20
-367.3394164918505
 10
414.6920051123696
 20
-367.3558796180064
 10
414.6516312553676
 20
-367.3860620159603
 10
414.6096894815881
 20
-367.4111486843885
 10
414.5661797910316
 20
-367.4311396232925
 10
414.5207102045051
 20
-367.4460348326725
 10
414.4913117649402
 20
-367.453090458168
 10
414.4532897831031
 20
-367.4601460836634
 10
414.4097800925472
 20
-367.4656337923821
 10
414.3611746724663
 20
-367.4699455635186
 10
414.3070815436667
 20
-367.4730813970723
 10
414.2475007061483
 20
-367.4750412930434
 10
414.1824321599115
 20
-367.4754332722368
 10
413.9676275614911
 20
-367.4754332722368
 10
414.2569082068103
 20
-366.0878269247737
 10
414.5022871823774
 20
-366.0878269247737
 10
414.5234540588644
 20
-366.088218903968
 10
414.5873466675192
 20
-366.0893948415505
 97
        0
 75
     0
 76
     1
 47
0.0437405085000476
 98
        8
 10
423.1341708469871
 20
-365.8561314876056
 10
423.1341708469871
 20
-365.8561314876056
 10
424.488483136337
 20
-366.1307583719645
 10
420.5433152478417
 20
-366.0130601124688
 10
418.5805443527051
 20
-366.032677086001
 10
416.5392628695698
 20
-365.9738261654025
 10
414.6550025624346
 20
-366.032677086001
 10
414.6550025624346
 20
-366.032677086001
1001
AcDbBlockRepETag
1070
     1
1071
       36
1005
6F
  0
LWPOLYLINE
  5
70
330
49
100
AcDbEntity
  8
0
100
AcDbPolyline
 90
       51
 70
     1
 43
0.0
 10
414.5022871823774
 20
-366.0878269247737
 10
414.2569082068103
 20
-366.0878269247737
 10
413.9676275614911
 20
-367.4754332722368
 10
414.1824321599115
 20
-367.4754332722368
 10
414.2475007061483
 20
-367.4750412930434
 10
414.3070815436667
 20
-367.4730813970723
 10
414.3611746724663
 20
-367.4699455635186
 10
414.4097800925472
 20
-367.4656337923821
 10
414.4532897831031
 20
-367.4601460836634
 10
414.4913117649402
 20
-367.453090458168
 10
414.5207102045051
 20
-367.4460348326725
 10
414.5661797910324
 20
-367.4311396232925
 10
414.6096894815881
 20
-367.4111486843885
 10
414.6516312553676
 20
-367.3860620159603
 10
414.6920051123696
 20
-367.3558796180064
 10
414.7116040720801
 20
-367.3394164918505
 10
414.7441383451987
 20
-367.3080581563145
 10
414.7751047015398
 20
-367.2739559664192
 10
414.8045031411056
 20
-367.2371099221642
 10
414.8327256430874
 20
-367.1975200235502
 10
414.8597722074873
 20
-367.1555782497708
 10
414.8852508551107
 20
-367.1105006424377
 10
414.9095535651503
 20
-367.0630711599401
 10
414.922096899365
 20
-367.0360245955403
 10
414.9393439839094
 20
-366.9944748009552
 10
414.9550231516776
 20
-366.9513570895933
 10
414.9683504442799
 20
-366.9066714614546
 10
414.9797178409117
 20
-366.8604179165392
 10
414.9895173207668
 20
-366.812988434041
 10
414.9969649254571
 20
-366.7635990555718
 10
415.0024526341757
 20
-366.7126417603258
 10
415.0059804469227
 20
-366.6601165483034
 10
415.0075483637
 20
-366.6064153986986
 10
415.0075483637
 20
-366.5895602933483
 10
415.0063724261181
 20
-366.5288035182466
 10
415.0020606549815
 20
-366.4727504934772
 10
414.9946130502912
 20
-366.4210092398421
 10
414.9848135704369
 20
-366.3735797573445
 10
414.9714862778337
 20
-366.3308540251768
 10
414.9558071100662
 20
-366.2924400641454
 10
414.9373840879388
 20
-366.2595138118327
 10
414.9060257524032
 20
-366.2167880796652
 10
414.8719235625076
 20
-366.1803340146048
 10
414.8346855390581
 20
-366.1505435958456
 10
414.7950956404447
 20
-366.1270248441933
 10
414.7621693881318
 20
-366.1133055723963
 10
414.7304190734021
 20
-366.1046820301244
 10
414.6908291747876
 20
-366.0976264046285
 10
414.6430077130952
 20
-366.092922654298
 10
414.5873466675192
 20
-366.0893948415505
 10
414.5234540588644
 20
-366.088218903968
1001
AcDbBlockRepETag
1070
     1
1071
       37
1005
70
  0
LWPOLYLINE
  5
71
330
49
100
AcDbEntity
  8
0
100
AcDbPolyline
 90
       76
 70
     1
 43
0.0
 10
415.4324538102119
 20
-366.5593778953948
 10
415.4328457894061
 20
-366.6021036275624
 10
415.4320618310165
 20
-366.6554127979734
 10
415.4297099558515
 20
-366.7075460308029
 10
415.4257901639112
 20
-366.7588953052423
 10
415.4199104759973
 20
-366.8090686420996
 10
415.412462871308
 20
-366.8584580205684
 10
415.4034473498414
 20
-366.9070634406489
 10
415.3924719324031
 20
-366.9541009439527
 10
415.3803205773828
 20
-367.0007464680625
 10
415.3662093263928
 20
-367.0458240753955
 10
415.3505301586236
 20
-367.0905097035338
 10
415.3332830740801
 20
-367.1336274148953
 10
415.3144680727573
 20
-367.1763531470638
 10
415.3066284888735
 20
-367.1920323148312
 10
415.2823257788331
 20
-367.2394617973291
 10
415.2564551520161
 20
-367.284931383856
 10
415.2298005668116
 20
-367.328833053607
 10
415.2019700440233
 20
-367.3707748273864
 10
415.1725716044574
 20
-367.4107567051947
 10
415.1423892065039
 20
-367.4487786870318
 10
415.1110308709684
 20
-367.4852327520921
 10
415.0788885770444
 20
-367.5197269211813
 10
415.0451783663428
 20
-367.5522611943002
 10
415.0102922180593
 20
-367.5828355714475
 10
414.9867734664074
 20
-367.6020425519628
 10
414.9511033597353
 20
-367.6286971371692
 10
414.9130813778984
 20
-367.6537838055974
 10
414.8730995000906
 20
-367.676910578055
 10
414.8303737679225
 20
-367.6984694337367
 10
414.7856881397847
 20
-367.7184603726406
 10
414.7382586572848
 20
-367.7368833947676
 10
414.6888692788161
 20
-367.7533465209244
 10
414.6371280251823
 20
-367.7682417303031
 10
414.6061616688411
 20
-367.7760813141877
 10
414.5720594789445
 20
-367.7831369396832
 10
414.5340374971083
 20
-367.78940860679
 10
414.4913117649402
 20
-367.7945043363151
 10
414.4446662408308
 20
-367.7988161074513
 10
414.3937089455849
 20
-367.8023439201989
 10
414.3388318583975
 20
-367.8046957953643
 10
414.2796430000734
 20
-367.8062637121407
 10
414.2165343498072
 20
-367.8070476705293
 10
413.474909714383
 20
-367.8070476705293
 10
413.9056948488078
 20
-365.7479809634037
 10
414.4603454085982
 20
-365.7479809634037
 10
414.5332535387196
 20
-365.7483729425972
 10
414.5963621889858
 20
-365.7487649217919
 10
414.6504553177854
 20
-365.7499408593744
 10
414.6955329251186
 20
-365.7511167969565
 10
414.7308110525955
 20
-365.7530766929276
 10
414.7562897002179
 20
-365.7550365888983
 10
414.8088149122403
 20
-365.7617002352008
 10
414.8589882490996
 20
-365.7703237774732
 10
414.906809710791
 20
-365.7816911741047
 10
414.9522792973185
 20
-365.7954104459018
 10
414.9852055496311
 20
-365.8071698217276
 10
415.0302831569633
 20
-365.8267687814373
 10
415.07379284752
 20
-365.8498955538949
 10
415.1153426421051
 20
-365.8765501391004
 10
415.1549325407195
 20
-365.9059485786652
 10
415.1678678541275
 20
-365.9165320169087
 10
415.202754002411
 20
-365.9498502484153
 10
415.2356802547236
 20
-365.9855203550878
 10
415.2666466110649
 20
-366.0239343161197
 10
415.2952610922421
 20
-366.0654841107044
 10
415.309372343233
 20
-366.0878269247737
 10
415.3321071364971
 20
-366.1289847401645
 10
415.3524900545953
 20
-366.1724944307203
 10
415.3705210975285
 20
-366.2183559964419
 10
415.3865922444902
 20
-366.2661774581338
 10
415.400703495481
 20
-366.316742774185
 10
415.4108949545307
 20
-366.3626043399071
 10
415.4191265176076
 20
-366.4096418432109
 10
415.4253981847158
 20
-366.4582472632915
 10
415.4297099558515
 20
-366.5080286209545
1001
AcDbBlockRepETag
1070
     1
1071
       38
1005
71
  0
LWPOLYLINE
  5
72
330
49
100
AcDbEntity
  8
0
100
AcDbPolyline
 90
       12
 70
     1
 43
0.0
 10
415.9733850982056
 20
-365.7479809634037
 10
415.5437759013648
 20
-367.8070476705293
 10
417.1512825767731
 20
-367.8070476705293
 10
417.2241907068936
 20
-367.4628899380227
 10
416.0266942686166
 20
-367.4628899380227
 10
416.1560474027028
 20
-366.9039276070953
 10
417.2214468525353
 20
-366.9039276070953
 10
417.2927870658786
 20
-366.5597698745887
 10
416.2273876160461
 20
-366.5597698745887
 10
416.3257743937911
 20
-366.0921386959093
 10
417.4276279086834
 20
-366.0921386959093
 10
417.499360101222
 20
-365.7479809634037
1001
AcDbBlockRepETag
1070
     1
1071
       39
1005
72
  0
LWPOLYLINE
  5
73
330
49
100
AcDbEntity
  8
0
100
AcDbPolyline
 90
      192
 70
     1
 43
0.0
 10
418.5671114262194
 20
-365.7252461701396
 10
418.5181140269442
 20
-365.7330857540233
 10
418.4702925652518
 20
-365.742885233878
 10
418.4236470411423
 20
-365.7550365888983
 10
418.3777854754207
 20
-365.7691478398897
 10
418.3327078680877
 20
-365.7852189868522
 10
418.2888061983375
 20
-365.803250029785
 10
418.2460804661696
 20
-365.8232409686893
 10
418.2045306715854
 20
-365.8451918035644
 10
418.1637648353881
 20
-365.8694945136044
 10
418.1237829575803
 20
-365.8957571196156
 10
418.1018321227056
 20
-365.9114362873844
 10
418.0642021200618
 20
-365.9400507685605
 10
418.0281400341963
 20
-365.970233166514
 10
417.9932538859128
 20
-366.0019834812442
 10
417.9595436752114
 20
-366.0356936919452
 10
417.9274013812873
 20
-366.0705798402282
 10
417.8964350249453
 20
-366.1074258844838
 10
417.8670365853803
 20
-366.1458398455147
 10
417.8388140833986
 20
-366.185821723323
 10
417.8117675189978
 20
-366.2273715179081
 10
417.7858968921809
 20
-366.2704892292709
 10
417.7615941821413
 20
-366.3151748574087
 10
417.7384674096829
 20
-366.3614284023243
 10
417.7169085540016
 20
-366.4096418432109
 10
417.7165165748073
 20
-366.4108177807934
 10
417.6973095942911
 20
-366.4566793465147
 10
417.6800625097476
 20
-366.5029328914297
 10
417.6643833419801
 20
-366.5495784155396
 10
417.6502720909883
 20
-366.5966159188433
 10
417.6381207359671
 20
-366.6440454013414
 10
417.6271453185298
 20
-366.6918668630338
 10
417.6181297970633
 20
-366.7396883247261
 10
417.6106821923739
 20
-366.7882937448066
 10
417.6048025044609
 20
-366.8368991648876
 10
417.6008827125197
 20
-366.8862885433559
 10
417.5981388581594
 20
-366.9356779218256
 10
417.5973548997716
 20
-366.9854592794886
 10
417.5985308373538
 20
-367.0348486579579
 10
417.601274691714
 20
-367.0889417867575
 10
417.6067624004316
 20
-367.141075019586
 10
417.614210005122
 20
-367.1920323148312
 10
417.6236175057828
 20
-367.2410297141059
 10
417.6357688608032
 20
-367.2884591966044
 10
417.6498801117941
 20
-367.3339287831313
 10
417.6659512587557
 20
-367.3778304528818
 10
417.6843742808824
 20
-367.4201642058552
 10
417.7051491781758
 20
-367.4609300420522
 10
417.7278839714389
 20
-367.4997359822774
 10
417.752970639868
 20
-367.5369740057263
 10
417.7804091834622
 20
-367.572644112398
 10
417.8098076230271
 20
-367.6067463022937
 10
417.841557937757
 20
-367.6388885962183
 10
417.8752681484584
 20
-367.6694629733661
 10
417.9023147128582
 20
-367.6910218290468
 10
417.9368088819473
 20
-367.714932559893
 10
417.9736549262024
 20
-367.7372753739619
 10
418.0128528456216
 20
-367.7572663128663
 10
418.0540106610123
 20
-367.7749053766051
 10
418.0971283723748
 20
-367.7905845443728
 10
418.1425979589021
 20
-367.8043038161695
 10
418.1900274414001
 20
-367.8160631919959
 10
418.2398087990621
 20
-367.8254706926564
 10
418.2919420318913
 20
-367.8325263181523
 10
418.3460351606909
 20
-367.8380140268705
 10
418.4024801646565
 20
-367.8411498604246
 10
418.4608850645909
 20
-367.8423257980075
 10
418.5063546511181
 20
-367.8415418396189
 10
418.5557440295879
 20
-367.8395819436478
 10
418.6047414288614
 20
-367.8356621517058
 10
418.6537388281366
 20
-367.8305664221807
 10
418.7023442482177
 20
-367.8242947550743
 10
418.7509496682977
 20
-367.8160631919959
 10
418.7995550883788
 20
-367.806655691335
 10
418.8477685292655
 20
-367.7956802738977
 10
418.8955899909577
 20
-367.7831369396832
 10
418.9434114526492
 20
-367.7690256886917
 10
418.9888810391766
 20
-367.7545224585065
 10
419.0394463552292
 20
-367.7368833947676
 10
419.0884437545037
 20
-367.7184603726406
 10
419.1354812578073
 20
-367.6992533921248
 10
419.1805588651403
 20
-367.6792624532204
 10
419.2236765765018
 20
-367.6584875559279
 10
419.2652263710868
 20
-367.6365367210528
 10
419.3044242905069
 20
-367.6141939069835
 10
419.3420542931497
 20
-367.5906751553311
 10
419.5274604520063
 20
-366.7075460308029
 10
418.6067013248328
 20
-366.7075460308029
 10
418.5349691322953
 20
-367.0513117841137
 10
419.0602212525218
 20
-367.0513117841137
 10
418.9971126022546
 20
-367.3574475347836
 10
418.9837853096523
 20
-367.3641111810848
 10
418.9426274942607
 20
-367.3833181616001
 10
418.8987258245123
 20
-367.4013492045337
 10
418.8516883212078
 20
-367.4182043098844
 10
418.8022989427381
 20
-367.4342754568461
 10
418.7497737307158
 20
-367.4487786870318
 10
418.7137116448493
 20
-367.4581861876923
 10
418.6643222663806
 20
-367.46916160513
 10
418.6153248671051
 20
-367.4773931682084
 10
418.5667194470251
 20
-367.4832728561209
 10
418.5185060061384
 20
-367.4871926480632
 10
418.4706845444461
 20
-367.4883685856457
 10
418.4232550619481
 20
-367.4868006688689
 10
418.3699458915371
 20
-367.4813129601499
 10
418.3201645338731
 20
-367.4719054594894
 10
418.2743029681533
 20
-367.4581861876923
 10
418.2315772359843
 20
-367.4405471239534
 10
418.1927712957595
 20
-367.4189882682727
 10
418.1571011890873
 20
-367.3931176414553
 10
418.1253508743566
 20
-367.3633272226966
 10
418.1120235817543
 20
-367.3488239925104
 10
418.0877208717137
 20
-367.3158977401981
 10
418.0661620160326
 20
-367.279051695944
 10
418.0481309731002
 20
-367.2386778389409
 10
418.0336277429141
 20
-367.1943841899961
 10
418.0222603462826
 20
-367.1465627283041
 10
418.0140287832045
 20
-367.09482147467
 10
418.0089330536802
 20
-367.0391604290944
 10
418.0073651369028
 20
-366.9799715707695
 10
418.0073651369028
 20
-366.971740007692
 10
418.0085410744858
 20
-366.9199987540569
 10
418.0116769080394
 20
-366.8694334380061
 10
418.0167726375638
 20
-366.8196520803422
 10
418.0234362838644
 20
-366.7702627018734
 10
418.0324518053321
 20
-366.7220492609871
 10
418.0430352435759
 20
-366.6746197784892
 10
418.0555785777904
 20
-366.6279742543793
 10
418.0696898287806
 20
-366.5821126886576
 10
418.0861529549373
 20
-366.5370350813256
 10
418.1041839978706
 20
-366.4923494531864
 10
418.1233909783858
 20
-366.4507996586017
 10
418.1476936884264
 20
-366.4045461136866
 10
418.1743482736319
 20
-366.3610364231303
 10
418.2025707756137
 20
-366.320270586933
 10
418.2327531735673
 20
-366.2830325634851
 10
418.2645034882971
 20
-366.2481464152011
 10
418.2986056781929
 20
-366.2167880796652
 10
418.3346677640592
 20
-366.1881735984885
 10
418.3722977667021
 20
-366.1623029716716
 10
418.3766095378386
 20
-366.1599510965066
 10
418.4193352700048
 20
-366.1356483864656
 10
418.4632369397558
 20
-366.1144815099792
 10
418.5083145470898
 20
-366.096450467046
 10
418.5541761128106
 20
-366.081555257666
 10
418.6012136161143
 20
-366.0701878610348
 10
418.649427057001
 20
-366.0623482771506
 10
418.6984244562763
 20
-366.0572525476263
 10
418.7485977931327
 20
-366.0556846308495
 10
418.768980711231
 20
-366.0560766100439
 10
418.8215059232534
 20
-366.0599964019852
 10
418.8712872809174
 20
-366.0678359858693
 10
418.9179328050268
 20
-366.0803793200835
 10
418.9614424955824
 20
-366.0972344254346
 10
419.0026003109732
 20
-366.1187932811154
 10
419.0406222928112
 20
-366.1442719287383
 10
419.0574773981616
 20
-366.1579912005354
 10
419.090011671281
 20
-366.1893495360714
 10
419.1194101108457
 20
-366.2246276635492
 10
419.1460646960504
 20
-366.2642175621631
 10
419.1695834477021
 20
-366.3077272527194
 10
419.1899663658005
 20
-366.355156735217
 10
419.2076054295393
 20
-366.4068979888507
 10
419.6019364989042
 20
-366.3618203815181
 10
419.5917450398546
 20
-366.320270586933
 10
419.5772418096693
 20
-366.2693132916875
 10
419.5607786835124
 20
-366.2203158924127
 10
419.5419636821916
 20
-366.1736703683033
 10
419.5211887848991
 20
-366.1289847401645
 10
419.4980620124415
 20
-366.0866509871912
 10
419.4733673232067
 20
-366.0466691093825
 10
419.4459287796125
 20
-366.0086471275454
 10
419.416922319243
 20
-365.9729770208737
 10
419.3855639837056
 20
-365.9392668101718
 10
419.3522457521994
 20
-365.9079084746363
 10
419.3169676247215
 20
-365.8789020142658
 10
419.3005044985648
 20
-365.8667506592451
 10
419.264050433505
 20
-365.8420559700112
 10
419.2260284516668
 20
-365.8197131559418
 10
419.186046573859
 20
-365.7993302378431
 10
419.1441048000796
 20
-365.78129919491
 10
419.1005951095238
 20
-365.7652280479478
 10
419.0551255229975
 20
-365.7515087761512
 10
419.0076960404976
 20
-365.7397494003253
 10
418.9586986412232
 20
-365.7299499204701
 10
418.9077413459781
 20
-365.7225023157803
 10
418.8552161339557
 20
-365.7174065862559
 10
418.8007310259616
 20
-365.7142707527023
 10
418.7442860219979
 20
-365.7130948151193
 10
418.7199833119566
 20
-365.7130948151193
 10
418.668242058322
 20
-365.7150547110905
 10
418.6172847630768
 20
-365.7189745030332
1001
AcDbBlockRepETag
1070
     1
1071
       40
1005
73
  0
LWPOLYLINE
  5
74
330
49
100
AcDbEntity
  8
0
100
AcDbPolyline
 90
      211
 70
     1
 43
0.0
 10
420.5748288589047
 20
-365.7240702325572
 10
420.5238715636586
 20
-365.7323017956355
 10
420.4752661435787
 20
-365.7432772130728
 10
420.4290125986626
 20
-365.7562125264817
 10
420.3851109289125
 20
-365.7714997150551
 10
420.3431691551331
 20
-365.7895307579879
 10
420.3039712357139
 20
-365.8095216968927
 10
420.2671251914589
 20
-365.8322564901559
 10
420.2322390431745
 20
-365.8569511793903
 10
420.199704770057
 20
-365.8843897229849
 10
420.1969609156966
 20
-365.8867415981498
 10
420.1620747674131
 20
-365.9220197256273
 10
420.1303244526843
 20
-365.9584737906885
 10
420.1024939298958
 20
-365.9972797309139
 10
420.0785831990496
 20
-366.037261608722
 10
420.0582002809515
 20
-366.0795953616954
 10
420.0413451756002
 20
-366.1231050522515
 10
420.0284098621914
 20
-366.1685746387784
 10
420.0193943407256
 20
-366.2160041212765
 10
420.0135146528118
 20
-366.2650015205518
 10
420.0119467360363
 20
-366.3155668366026
 10
420.0123387152298
 20
-366.3430053801972
 10
420.0166504863655
 20
-366.394354654637
 10
420.0248820494435
 20
-366.4433520539119
 10
420.037425383658
 20
-366.4899975780213
 10
420.0542804890091
 20
-366.5338992477718
 10
420.0750553863016
 20
-366.5754490423565
 10
420.0785831990496
 20
-366.5817207094637
 10
420.1056297634486
 20
-366.6228785248545
 10
420.1362041405963
 20
-366.6609005066921
 10
420.1703063304921
 20
-366.6953946757822
 10
420.2079363331348
 20
-366.7267530113172
 10
420.2490941485256
 20
-366.7549755133005
 10
420.2753567545369
 20
-366.771438639456
 10
420.3090669652383
 20
-366.7906456199722
 10
420.3466969678819
 20
-366.8110285380703
 10
420.3886387416615
 20
-366.8325873937512
 10
420.4348922865765
 20
-366.8549302078209
 10
420.485065623433
 20
-366.8788409386662
 10
420.5399427106213
 20
-366.9035356279014
 10
420.5983476105566
 20
-366.9294062547178
 10
420.6438171970838
 20
-366.9493971936222
 10
420.7057499097682
 20
-366.977619695605
 10
420.7594510593726
 20
-367.003098343228
 10
420.8049206459
 20
-367.0262251156855
 10
420.841766690154
 20
-367.0466080337842
 10
420.8703811713303
 20
-367.0642470975226
 10
420.8903721102351
 20
-367.0795342860965
 10
420.9166347162463
 20
-367.1046209545252
 10
420.9444652390348
 20
-367.1438188739448
 10
420.9609283651906
 20
-367.1869365853067
 10
420.9664160739094
 20
-367.23397408861
 10
420.9656321155216
 20
-367.2516131523498
 10
420.9570085732493
 20
-367.2970827388763
 10
420.9389775303152
 20
-367.3394164918505
 10
420.9111470075276
 20
-367.3782224320758
 10
420.8735170048847
 20
-367.4138925387474
 10
420.8594057538929
 20
-367.424083997797
 10
420.8256955431916
 20
-367.443682957507
 10
420.786105644578
 20
-367.4597541044692
 10
420.7410280372458
 20
-367.4722974386832
 10
420.6908547003886
 20
-367.4813129601499
 10
420.6348016756172
 20
-367.4864086896751
 10
420.5732609421284
 20
-367.4883685856457
 10
420.5289672931838
 20
-367.4871926480632
 10
420.4701704140533
 20
-367.4828808769266
 10
420.4172532228375
 20
-367.4746493138487
 10
420.3694317611443
 20
-367.4628899380227
 10
420.3267060289771
 20
-367.447210770255
 10
420.2894680055287
 20
-367.4280037897383
 10
420.2573257116037
 20
-367.4052689964756
 10
420.230671126399
 20
-367.3786144112696
 10
420.2193037297673
 20
-367.3633272226966
 10
420.202056645222
 20
-367.3304009703838
 10
420.1879453942301
 20
-367.2896351341869
 10
420.1769699767936
 20
-367.2406377349121
 10
420.1695223721034
 20
-367.1838007517536
 10
420.1648186217726
 20
-367.1187322055157
 10
419.7618640101363
 20
-367.139899082003
 10
419.7614720309428
 20
-367.1755691886756
 10
419.7634319269136
 20
-367.2277024215036
 10
419.768527656438
 20
-367.277875758361
 10
419.7763672403224
 20
-367.3264811784416
 10
419.7869506785655
 20
-367.3735186817462
 10
419.8002779711678
 20
-367.4189882682727
 10
419.8167410973246
 20
-367.4628899380227
 10
419.8363400570342
 20
-367.5052236909964
 10
419.8531951623845
 20
-367.5354060889495
 10
419.8782818308145
 20
-367.5734280707861
 10
419.9076802703785
 20
-367.6090981774592
 10
419.9409985018855
 20
-367.6424164089653
 10
419.9778445461405
 20
-367.6733827653074
 10
420.018610382337
 20
-367.7019972464842
 10
420.0629040312805
 20
-367.7282598524953
 10
420.1115094513625
 20
-367.7521705833415
 10
420.1354201822077
 20
-367.7627540215848
 10
420.177361955988
 20
-367.7796091269351
 10
420.2212636257382
 20
-367.7941123571209
 10
420.2663412330703
 20
-367.8070476705293
 10
420.3129867571806
 20
-367.8176311087727
 10
420.3615921772606
 20
-367.8266466302393
 10
420.4113735349237
 20
-367.8333102765409
 10
420.4627228093641
 20
-367.8384060060653
 10
420.5160319797752
 20
-367.8411498604246
 10
420.570517087769
 20
-367.8423257980075
 10
420.5889401098956
 20
-367.8419338188128
 10
420.6449931346669
 20
-367.8403659020369
 10
420.6994782426609
 20
-367.8364461100937
 10
420.7516114754879
 20
-367.8301744429873
 10
420.8021767915406
 20
-367.8219428799093
 10
420.8507822116207
 20
-367.8113594416653
 10
420.897427735731
 20
-367.798424128257
 10
420.9421133638689
 20
-367.7835289188774
 10
420.9852310752303
 20
-367.7666738135263
 10
421.0263888906228
 20
-367.747466833011
 10
421.0651948308477
 20
-367.7259079773298
 10
421.1024328542961
 20
-367.7019972464842
 10
421.1377109817739
 20
-367.6765185988612
 10
421.1714211924753
 20
-367.6482960968792
 10
421.2078752575362
 20
-367.6134099485949
 10
421.2415854682366
 20
-367.5761719251464
 10
421.2721598453843
 20
-367.5381499433092
 10
421.2988144305899
 20
-367.498168065501
 10
421.3219412030476
 20
-367.4574022293045
 10
421.341540162757
 20
-367.4150684763304
 10
421.3576113097197
 20
-367.3715587857746
 10
421.3701546439351
 20
-367.3264811784416
 10
421.3787781862064
 20
-367.2802276335265
 10
421.3842658949251
 20
-367.2324061718341
 10
421.3858338117025
 20
-367.1834087725593
 10
421.3858338117025
 20
-367.1685135631796
 10
421.3826979781488
 20
-367.116772309545
 10
421.3748583942651
 20
-367.0677749102702
 10
421.3630990184383
 20
-367.0211293861603
 10
421.347419850671
 20
-366.9768357372168
 10
421.3270369325718
 20
-366.9348939634373
 10
421.3027342225323
 20
-366.8949120856287
 10
421.2741197413552
 20
-366.8576740621797
 10
421.2415854682366
 20
-366.8223959347024
 10
421.2317859883815
 20
-366.8133804132353
 10
421.2086592159238
 20
-366.7941734327201
 10
421.1808286931362
 20
-366.7737905146213
 10
421.1482944200178
 20
-366.752623638135
 10
421.1110563965685
 20
-366.7302808240656
 10
421.0691146227899
 20
-366.7067620724133
 10
421.0224690986806
 20
-366.6820673831789
 10
420.9715118034337
 20
-366.6565887355559
 10
420.9154587786643
 20
-366.6303261295443
 10
420.8547020035629
 20
-366.6024956067559
 10
420.7892414781317
 20
-366.5738811255796
 10
420.7257408486712
 20
-366.5456586235978
 10
420.6685118863186
 20
-366.5190040383923
 10
420.6183385494614
 20
-366.4943093491578
 10
420.5744368797112
 20
-366.4711825767004
 10
420.5379828146496
 20
-366.4496237210187
 10
420.5078004166971
 20
-366.4300247613097
 10
420.4846736442394
 20
-366.4123856975698
 10
420.4670345804998
 20
-366.3959225714139
 10
420.4388120785178
 20
-366.3579005895767
 10
420.4215649939733
 20
-366.3147828782143
 10
420.4160772852547
 20
-366.2661774581338
 10
420.4192131188082
 20
-366.2301153722678
 10
420.4325404114105
 20
-366.185821723323
 10
420.4568431214511
 20
-366.1458398455147
 10
420.4917292697346
 20
-366.1105617180369
 10
420.5030966663671
 20
-366.1019381757646
 10
420.5368068770676
 20
-366.0827311952489
 10
420.577572713265
 20
-366.0678359858693
 10
420.6253941749555
 20
-366.0572525476263
 10
420.6802712621438
 20
-366.0509808805187
 10
420.7418119956336
 20
-366.0486290053541
 10
420.794337207656
 20
-366.0505889013248
 10
420.8476463780669
 20
-366.0568605684316
 10
420.8958598189536
 20
-366.0678359858693
 10
420.9393695095103
 20
-366.0831231744428
 10
420.9777834705418
 20
-366.1031141133476
 10
421.0111017020481
 20
-366.1274168233877
 10
421.0209011819032
 20
-366.1364323448542
 10
421.0510835798568
 20
-366.1697505763614
 10
421.076170248285
 20
-366.2085565165867
 10
421.0953772288002
 20
-366.2516742279489
 10
421.1094884797921
 20
-366.3002796480287
 10
421.11772004287
 20
-366.3535888184406
 10
421.5234185088656
 20
-366.3351657963127
 10
421.5202826753128
 20
-366.2994956896409
 10
421.5128350706236
 20
-366.2489303735892
 10
421.5022516323797
 20
-366.2003249535087
 10
421.4889243397765
 20
-366.1540714085932
 10
421.4720692344262
 20
-366.1093857804549
 10
421.4520782955223
 20
-366.0666600482873
 10
421.4293435022582
 20
-366.0258942120904
 10
421.403080896247
 20
-365.9870882718646
 10
421.373682456682
 20
-365.9506342068039
 10
421.341540162757
 20
-365.9157480585204
 10
421.3058700560859
 20
-365.8828218062077
 10
421.2948946386476
 20
-365.8738062847409
 10
421.2607924487529
 20
-365.848327637118
 10
421.2247303628863
 20
-365.8248088854657
 10
421.186316401855
 20
-365.8036420089794
 10
421.1459425448529
 20
-365.7844350284636
 10
421.1032168126847
 20
-365.7675799231133
 10
421.0581392053518
 20
-365.7530766929276
 10
421.0114936812432
 20
-365.7409253379074
 10
420.9621043027728
 20
-365.7307338788587
 10
420.9111470075276
 20
-365.7228942949741
 10
420.8578378371166
 20
-365.7174065862559
 10
420.8021767915406
 20
-365.7142707527023
 10
420.7445558499929
 20
-365.7130948151193
 10
420.7414200164393
 20
-365.7130948151193
 10
420.6834070956984
 20
-365.7142707527023
 10
420.6277460501214
 20
-365.7177985654498
1001
AcDbBlockRepETag
1070
     1
1071
       41
1005
74
  0
LWPOLYLINE
  5
75
330
49
100
AcDbEntity
  8
0
100
AcDbPolyline
 90
       87
 70
     1
 43
0.0
 10
422.9012253764748
 20
-366.0682279650637
 10
422.9506147549436
 20
-366.0737156737824
 10
422.9980442374417
 20
-366.083907132831
 10
423.0431218447747
 20
-366.0988023422115
 10
423.0854555977485
 20
-366.1180093227272
 10
423.1254374755572
 20
-366.1423120327677
 10
423.1630674781991
 20
-366.1709265139443
 10
423.1979536264824
 20
-366.2046367246448
 10
423.214024773445
 20
-366.2226677675776
 10
423.2410713378448
 20
-366.2583378742506
 10
423.2641981103033
 20
-366.2963598560874
 10
423.283797070013
 20
-366.3379096506728
 10
423.2998682169754
 20
-366.3818113204225
 10
423.3124115511891
 20
-366.4288488237267
 10
423.3214270726556
 20
-366.4786301813901
 10
423.3269147813743
 20
-366.5311553934125
 10
423.3284826981516
 20
-366.5864244597947
 10
423.3284826981516
 20
-366.6040635235331
 10
423.3265228021808
 20
-366.650709047643
 10
423.3222110310443
 20
-366.6977465509467
 10
423.3155473847427
 20
-366.7447840542504
 10
423.306531863276
 20
-366.7922135367485
 10
423.2951644666445
 20
-366.8400349984409
 10
423.281445194847
 20
-366.8878564601337
 10
423.2653740478845
 20
-366.9360699010199
 10
423.2469510257578
 20
-366.9846753211
 10
423.2261761284653
 20
-367.0332807411806
 10
423.2050092519783
 20
-367.0779663693197
 10
423.1795306043558
 20
-367.1257878310121
 10
423.1528760191503
 20
-367.1704734591504
 10
423.1250454963618
 20
-367.2120232537354
 10
423.0956470567971
 20
-367.2508291939617
 10
423.0650726796501
 20
-367.2864993006328
 10
423.0333223649195
 20
-367.3194255529456
 10
423.0000041334124
 20
-367.3492159717052
 10
422.9651179851289
 20
-367.3758705569107
 10
422.953358609303
 20
-367.3841021199887
 10
422.9090649603586
 20
-367.4123246219715
 10
422.8647713114141
 20
-367.4358433736229
 10
422.819693704081
 20
-367.4550503541391
 10
422.7742241175538
 20
-367.4703375427124
 10
422.7283625518329
 20
-367.480920980956
 10
422.6821090069178
 20
-367.4875846272576
 10
422.6350715036142
 20
-367.4895445232278
 10
422.5880340003095
 20
-367.4879766064519
 10
422.5386446218408
 20
-367.4813129601499
 10
422.4916071185369
 20
-367.4703375427124
 10
422.4473134695926
 20
-367.4546583749448
 10
422.4053716958142
 20
-367.4346674360409
 10
422.3661737763941
 20
-367.4095807676117
 10
422.3297197113324
 20
-367.3801823280463
 10
422.2956175214376
 20
-367.3464721173455
 10
422.2658271026793
 20
-367.3100180522856
 10
422.2395644966671
 20
-367.2708201328652
 10
422.2172216825983
 20
-367.2296623174752
 10
422.1987986604707
 20
-367.186152626919
 10
422.184687409479
 20
-367.1406830403916
 10
422.1744959504302
 20
-367.0928615786993
 10
422.1686162625181
 20
-367.0430802210358
 10
422.1662643873513
 20
-366.9909469882073
 10
422.1670483457399
 20
-366.9513570895933
 10
422.1697922000994
 20
-366.9019677111247
 10
422.1744959504302
 20
-366.8533622910431
 10
422.181159596731
 20
-366.8051488501574
 10
422.1901751181976
 20
-366.7577193676593
 10
422.2007585564415
 20
-366.7106818643552
 10
422.2136938698494
 20
-366.6644283194401
 10
422.2285890792289
 20
-366.6185667537183
 10
422.2458361637746
 20
-366.5734891463858
 10
422.2646511650963
 20
-366.5288035182466
 10
422.2858180415832
 20
-366.484901848497
 10
422.3089448140408
 20
-366.4413921579408
 10
422.3344234616632
 20
-366.3986664257727
 10
422.3614700260631
 20
-366.3563326727999
 10
422.3849887777149
 20
-366.3230144412928
 10
422.4171310716383
 20
-366.281856625902
 10
422.4508412823396
 20
-366.2446186024532
 10
422.4857274306232
 20
-366.2109083917521
 10
422.522181495684
 20
-366.1807259937987
 10
422.5602034775219
 20
-366.1540714085932
 10
422.5994013969411
 20
-366.1309446361347
 10
422.6401672331385
 20
-366.1113456764256
 10
422.6825009861112
 20
-366.0952745294635
 10
422.726010676668
 20
-366.0831231744428
 10
422.771088284001
 20
-366.0741076529772
 10
422.8177338081103
 20
-366.068619944258
 10
422.8655552698027
 20
-366.0670520274812
1001
AcDbBlockRepETag
1070
     1
1071
       42
1005
75
  0
LWPOLYLINE
  5
76
330
49
100
AcDbEntity
  8
0
100
AcDbPolyline
 90
      139
 70
     1
 43
0.0
 10
422.8095022450323
 20
-365.7158386694791
 10
422.7589369289797
 20
-365.7205424198092
 10
422.7091555713168
 20
-365.7268140869169
 10
422.6605501512367
 20
-365.7354376291883
 10
422.6127286895433
 20
-365.7456290882383
 10
422.5664751446283
 20
-365.7581724224524
 10
422.5210055581018
 20
-365.7726756526376
 10
422.4767119091574
 20
-365.7891387787945
 10
422.4332022186009
 20
-365.8075618009216
 10
422.3908684656271
 20
-365.8283366982137
 10
422.3481427334609
 20
-365.851855449866
 10
422.3058089804863
 20
-365.8777260766823
 10
422.2646511650963
 20
-365.9051646202771
 10
422.2254532456763
 20
-365.9341710806475
 10
422.1874312638383
 20
-365.9651374369892
 10
422.1513691779717
 20
-365.9976717101081
 10
422.1164830296883
 20
-366.0317739000034
 10
422.0835567773765
 20
-366.067444006676
 10
422.0518064626458
 20
-366.1050740093183
 10
422.0220160438866
 20
-366.1442719287383
 10
422.0055529177306
 20
-366.1666147428077
 10
421.9792903117195
 20
-366.2058126622274
 10
421.9542036432903
 20
-366.2461865192299
 10
421.9306848916384
 20
-366.2877363138146
 10
421.9083420775696
 20
-366.3304620459826
 10
421.8875671802761
 20
-366.374755694927
 10
421.8679682205674
 20
-366.4202252814543
 10
421.84954519844
 20
-366.4668708055637
 10
421.8326900930888
 20
-366.5146922672557
 10
421.8170109253215
 20
-366.5640816457253
 10
421.8028996743296
 20
-366.6146469617765
 10
421.7911402985037
 20
-366.6597245691097
 10
421.779772901872
 20
-366.7102898851617
 10
421.7703654012111
 20
-366.7600712428248
 10
421.7621338381331
 20
-366.8090686420996
 10
421.7562541502202
 20
-366.8576740621797
 10
421.7515503998901
 20
-366.9054955238725
 10
421.7491985247241
 20
-366.9529250063706
 10
421.7480225871413
 20
-366.9995705304797
 10
421.7480225871413
 20
-367.005450218393
 10
421.7495905039195
 20
-367.0536636592788
 10
421.7535102958609
 20
-367.1018771001655
 10
421.7601739421614
 20
-367.1500905410526
 10
421.7691894636281
 20
-367.197912002745
 10
421.7805568602598
 20
-367.2457334644369
 10
421.7942761320582
 20
-367.2935549261292
 10
421.810739258214
 20
-367.3409844086273
 10
421.8295542595351
 20
-367.3884138911253
 10
421.8460173856909
 20
-367.4252599353795
 10
421.8683601997609
 20
-367.466809729965
 10
421.8938388473833
 20
-367.5067916077728
 10
421.9220613493653
 20
-367.5452055688047
 10
421.9530277057073
 20
-367.5820516130593
 10
421.9867379164088
 20
-367.6169377613423
 10
422.0235839606639
 20
-367.6506479720442
 10
422.0635658384725
 20
-367.6827902659684
 10
422.1058995914454
 20
-367.7129726639214
 10
422.1207948008249
 20
-367.7223801645828
 10
422.1599927202452
 20
-367.7455069370403
 10
422.2007585564415
 20
-367.7662818343323
 10
422.2430923094152
 20
-367.7843128772656
 10
422.2873859583597
 20
-367.7999920450333
 10
422.3332475240813
 20
-367.8133193376361
 10
422.3810689857726
 20
-367.8242947550743
 10
422.4304583642424
 20
-367.8325263181523
 10
422.4814156594884
 20
-367.8387979852591
 10
422.5343328507041
 20
-367.8423257980075
 10
422.5888179586982
 20
-367.8435017355896
 10
422.6280158781182
 20
-367.8431097563962
 10
422.6789731733641
 20
-367.8403659020369
 10
422.7291465102216
 20
-367.8360541308998
 10
422.7781439094959
 20
-367.8293904845987
 10
422.8263573503817
 20
-367.8207669423268
 10
422.8741788120742
 20
-367.810183504083
 10
422.9208243361844
 20
-367.7976401698684
 10
422.9662939227117
 20
-367.7827449604888
 10
423.0113715300448
 20
-367.7662818343323
 10
423.0556651789883
 20
-367.747466833011
 10
423.0987828903507
 20
-367.7266919357184
 10
423.1411166433245
 20
-367.7039571424548
 10
423.1826664379094
 20
-367.6792624532204
 10
423.2210803989409
 20
-367.6541757847918
 10
423.2594943599724
 20
-367.6263452620037
 10
423.2967323834217
 20
-367.5969468224383
 10
423.3327944692863
 20
-367.5655884869029
 10
423.3676806175707
 20
-367.5330542137849
 10
423.4009988490779
 20
-367.4985600446953
 10
423.4331411430019
 20
-367.4621059796345
 10
423.4637155201498
 20
-367.4244759769913
 10
423.4931139597156
 20
-367.3848860783774
 10
423.5213364616973
 20
-367.3437282629862
 10
423.5483830260973
 20
-367.3010025308185
 10
423.5738616737197
 20
-367.2563169026798
 10
423.5981643837603
 20
-367.2100633577643
 10
423.6056119884506
 20
-367.1951681483847
 10
423.6271708441307
 20
-367.149306582664
 10
423.6467698038413
 20
-367.1030530377479
 10
423.6648008467746
 20
-367.0567994928333
 10
423.6812639729296
 20
-367.0101539687239
 10
423.6961591823101
 20
-366.9631164654197
 10
423.7090944957172
 20
-366.916078962116
 10
423.7200699131554
 20
-366.8686494796175
 10
423.7294774138161
 20
-366.8212199971199
 10
423.7373169977009
 20
-366.7733985354271
 10
423.7435886648071
 20
-366.7251850945399
 10
423.7479004359438
 20
-366.6769716536542
 10
423.7502523111096
 20
-366.6283662335736
 10
423.7510362694973
 20
-366.5797608134931
 10
423.7510362694973
 20
-366.5652575833078
 10
423.7494683527211
 20
-366.5111644545082
 10
423.7451565815844
 20
-366.4590312216796
 10
423.7388849144781
 20
-366.408465905628
 10
423.7302613722048
 20
-366.3590765271592
 10
423.7192859547675
 20
-366.3112550654669
 10
423.7059586621652
 20
-366.2653934997452
 10
423.6902794943962
 20
-366.2207078716069
 10
423.6726404306573
 20
-366.1771981810511
 10
423.6522575125591
 20
-366.1356483864656
 10
423.6299146984902
 20
-366.0956665086578
 10
423.604828030062
 20
-366.0568605684316
 10
423.5777814656621
 20
-366.0200145241774
 10
423.5483830260973
 20
-365.9843444175049
 10
423.5166327113665
 20
-365.9502422276101
 10
423.5138888570081
 20
-365.9474983732506
 10
423.4797866671113
 20
-365.9153560793261
 10
423.4437245812451
 20
-365.885565660567
 10
423.4064865577964
 20
-365.857735137779
 10
423.3676806175707
 20
-365.8326484693507
 10
423.3276987397639
 20
-365.8099136760867
 10
423.2857569659836
 20
-365.7895307579879
 10
423.2426392546221
 20
-365.7714997150551
 10
423.1979536264824
 20
-365.7562125264817
 10
423.1517000815673
 20
-365.742885233878
 10
423.1042705990692
 20
-365.7323017956355
 10
423.055273199795
 20
-365.7236782533632
 10
423.0047078837423
 20
-365.7177985654498
 10
422.9525746509144
 20
-365.7142707527023
 10
422.8992654805033
 20
-365.7130948151193
 10
422.8616354778605
 20
-365.7134867943141
1001
AcDbBlockRepETag
1070
     1
1071
       43
1005
76
  0
LWPOLYLINE
  5
77
330
49
100
AcDbEntity
  8
0
100
AcDbPolyline
 90
       10
 70
     1
 43
0.0
 10
424.6874745644389
 20
-365.7479809634037
 10
424.2915755782978
 20
-365.7479809634037
 10
423.8619663814551
 20
-367.8070476705293
 10
424.2566894300143
 20
-367.8070476705293
 10
424.5455780961383
 20
-366.4237530942024
 10
425.1014045935126
 20
-367.8070476705293
 10
425.4961276420698
 20
-367.8070476705293
 10
425.9253448597181
 20
-365.7479809634037
 10
425.5325817071296
 20
-365.7479809634037
 10
425.2448689785888
 20
-367.1257878310121
1001
AcDbBlockRepETag
1070
     1
1071
       44
1005
77
  0
CIRCLE
  5
78
330
49
100
AcDbEntity
  8
0
100
AcDbCircle
 10
427.1447224305301
 20
-365.5674303905722
 30
0.0
 40
0.8969391739130925
1001
AcDbBlockRepETag
1070
     1
1071
       45
1005
78
  0
TEXT
  5
79
330
49
100
AcDbEntity
  8
0
100
AcDbText
 10
426.5474869305034
 20
-366.1594163561144
 30
0.0
 40
1.18397193108486
  1
R
  7
arial
100
AcDbText
1001
AcDbBlockRepETag
1070
     1
1071
       46
1005
79
  0
TEXT
  5
7A
330
49
100
AcDbEntity
  8
0
100
AcDbText
 10
410.5194755174023
 20
-371.9422038130373
 30
0.0
 40
1.33094200000005
  1
NAME:
  7
SIMPLEX
100
AcDbText
1001
AcDbBlockRepETag
1070
     1
1071
       47
1005
7A
  0
TEXT
  5
7B
330
49
100
AcDbEntity
  8
0
100
AcDbText
 10
419.3836423539833
 20
-389.2021722795576
 30
0.0
 40
1.33094200000005
  1
MM
  7
SIMPLEX
100
AcDbText
1001
AcDbBlockRepETag
1070
     1
1071
       50
1005
7B
  0
TEXT
  5
7C
330
49
100
AcDbEntity
  8
0
100
AcDbText
 10
417.6832649627767
 20
-391.5971518754095
 30
0.0
 40
1.33094200000005
  1
(INCH)
  7
SIMPLEX
100
AcDbText
1001
AcDbBlockRepETag
1070
     1
1071
       51
1005
7C
  0
SOLID
  5
7D
330
49
100
AcDbEntity
  8
0
100
AcDbTrace
 10
413.9641424846086
 20
-390.2825153586046
 30
0.0
 11
413.9641424846086
 21
-389.1367360658037
 31
0.0
 12
410.5268046062056
 22
-389.7096257122043
 32
0.0
 13
410.5268046062056
 23
-389.7096257122043
 33
0.0
1001
AcDbBlockRepETag
1070
     1
1071
       52
1005
7D
  0
SOLID
  5
7E
330
49
100
AcDbEntity
  8
0
100
AcDbTrace
 10
427.2735624846091
 20
-389.1367360658037
 30
0.0
 11
427.2735624846091
 21
-390.2825153586046
 31
0.0
 12
430.710900363013
 22
-389.7096257122043
 32
0.0
 13
430.710900363013
 23
-389.7096257122043
 33
0.0
1001
AcDbBlockRepETag
1070
     1
1071
       53
1005
7E
  0
LINE
  5
7F
330
49
100
AcDbEntity
  8
0
100
AcDbLine
 10
459.4325776276019
 20
-392.2390693130383
 30
0.0
 11
459.4325776276027
 21
-378.264178313038
 31
0.0
1001
AcDbBlockRepETag
1070
     1
1071
       54
1005
7F
  0
TEXT
  5
80
330
49
100
AcDbEntity
  8
0
100
AcDbText
 10
410.5194755174023
 20
-381.2587978130377
 30
0.0
 40
1.33094200000005
  1
TITLE:
  7
SIMPLEX
100
AcDbText
1001
AcDbBlockRepETag
1070
     1
1071
       55
1005
80
  0
TEXT
  5
81
330
49
100
AcDbEntity
  8
0
100
AcDbText
 10
373.9185705174013
 20
-362.6256098130367
 30
0.0
 40
1.33094200000005
  1
PART NO.:
  7
SIMPLEX
100
AcDbText
1001
AcDbBlockRepETag
1070
     1
1071
       56
1005
81
  0
TEXT
  5
82
330
49
100
AcDbEntity
  8
0
100
AcDbText
 10
433.2110530072058
 20
-390.5753918130376
 30
0.0
 40
1.33094200000005
  1
DO NOT SCALE DRAWING
  7
SIMPLEX
100
AcDbText
1001
AcDbBlockRepETag
1070
     1
1071
       57
1005
82
  0
TEXT
  5
83
330
49
100
AcDbEntity
  8
0
100
AcDbText
 10
462.3162852942696
 20
-381.2587978130377
 30
0.0
 40
1.33094200000005
  1
REV
  7
SIMPLEX
100
AcDbText
1001
AcDbBlockRepETag
1070
     1
1071
       58
1005
83
  0
TEXT
  5
84
330
49
100
AcDbEntity
  8
0
100
AcDbText
 10
461.1120996752214
 20
-385.9170948130377
 30
0.0
 40
1.33094200000005
  1
SHEET
  7
SIMPLEX
100
AcDbText
1001
AcDbBlockRepETag
1070
     1
1071
       59
1005
84
  0
TEXT
  5
85
330
49
100
AcDbEntity
  8
0
100
AcDbText
 10
410.5194755174023
 20
-385.9170948130377
 30
0.0
 40
1.33094200000005
  1
DRAWING NO.:
  7
SIMPLEX
100
AcDbText
1001
AcDbBlockRepETag
1070
     1
1071
       60
1005
85
  0
TEXT
  5
86
330
49
100
AcDbEntity
  8
0
100
AcDbText
 10
373.9185705174013
 20
-376.6005008130378
 30
0.0
 40
1.33094200000005
  1
CHKD:
  7
SIMPLEX
100
AcDbText
1001
AcDbBlockRepETag
1070
     1
1071
       61
1005
86
  0
TEXT
  5
87
330
49
100
AcDbEntity
  8
0
100
AcDbText
 10
373.9185705174013
 20
-381.2587978130377
 30
0.0
 40
1.33094200000005
  1
DRFT:
  7
SIMPLEX
100
AcDbText
1001
AcDbBlockRepETag
1070
     1
1071
       62
1005
87
  0
TEXT
  5
88
330
49
100
AcDbEntity
  8
0
100
AcDbText
 10
373.9185705174013
 20
-371.9422038130373
 30
0.0
 40
1.33094200000005
  1
APPD:
  7
SIMPLEX
100
AcDbText
1001
AcDbBlockRepETag
1070
     1
1071
       63
1005
88
  0
TEXT
  5
89
330
49
100
AcDbEntity
  8
0
100
AcDbText
 10
461.1437887704605
 20
-390.5753918130381
 30
0.0
 40
1.33094200000005
  1
SCALE
  7
SIMPLEX
100
AcDbText
1001
AcDbBlockRepETag
1070
     1
1071
       64
1005
89
  0
LINE
  5
8A
330
49
100
AcDbEntity
  8
0
100
AcDbLine
 10
398.888531548756
 20
-388.0835897640186
 30
0.0
 11
398.888531548756
 21
-384.4285538199829
 31
0.0
1001
AcDbBlockRepETag
1070
     1
1071
       65
1005
8A
  0
LINE
  5
8B
330
49
100
AcDbEntity
  8
0
100
AcDbLine
 10
391.4747142963307
 20
-387.0180150217138
 30
0.0
 11
391.4747142963307
 21
-385.4941285622881
 31
0.0
1001
AcDbBlockRepETag
1070
     1
1071
       66
1005
8B
  0
CIRCLE
  5
8C
330
49
100
AcDbEntity
  8
0
100
AcDbCircle
 10
385.3811654770288
 20
-386.256071792001
 30
0.0
 40
0.7616933268023045
1001
AcDbBlockRepETag
1070
     1
1071
       67
1005
8C
  0
CIRCLE
  5
8D
330
49
100
AcDbEntity
  8
0
100
AcDbCircle
 10
385.3811654770288
 20
-386.256071792001
 30
0.0
 40
1.828063984325543
1001
AcDbBlockRepETag
1070
     1
1071
       69
1005
8D
  0
TEXT
  5
8E
330
49
100
AcDbEntity
  8
0
100
AcDbText
 10
378.1965983745449
 20
-391.2618003879156
 30
0.0
 40
1.33094200000005
  1
THIRD ANGLE PROJECTION
  7
SIMPLEX
100
AcDbText
1001
AcDbBlockRepETag
1070
     1
1071
       71
1005
8E
  0
LINE
  5
8F
330
49
100
AcDbEntity
  8
0
100
AcDbLine
 10
391.4747142963307
 20
-385.4941285622881
 30
0.0
 11
398.888531548756
 21
-384.4285538199829
 31
0.0
1001
AcDbBlockRepETag
1070
     1
1071
       73
1005
8F
  0
LINE
  5
90
330
49
100
AcDbEntity
  8
0
100
AcDbLine
 10
391.4747142963307
 20
-387.0180150217138
 30
0.0
 11
398.888531548756
 21
-388.0835897640186
 31
0.0
1001
AcDbBlockRepETag
1070
     1
1071
       74
1005
90
  0
TEXT
  5
91
330
49
100
AcDbEntity
  8
0
100
AcDbText
 10
372.0483012851109
 20
-384.0905435967867
 30
0.0
 40
1.322515748715956
  1
DETACHED LISTS
 50
90.0
  7
SIMPLEX
100
AcDbText
1001
AcDbBlockRepETag
1070
     1
1071
       75
1005
91
  0
LINE
  5
92
330
49
100
AcDbEntity
  8
0
100
AcDbLine
 10
372.9203640174019
 20
-359.6309903130377
 30
0.0
 11
372.920364017401
 21
-392.2390693130383
 31
0.0
1001
AcDbBlockRepETag
1070
     1
1071
       76
1005
92
  0
LINE
  5
93
330
49
100
AcDbEntity
  8
0
100
AcDbLine
 10
469.8129416174051
 20
-199.2541039209432
 30
0.0
 11
469.8129416174051
 21
-203.9124009209427
 31
0.0
1001
AcDbBlockRepETag
1070
     1
1071
       77
1005
93
  0
LINE
  5
94
330
49
100
AcDbEntity
  8
0
100
AcDbLine
 10
460.4963476174051
 20
-199.2541039209432
 30
0.0
 11
460.4963476174051
 21
-203.9124009209427
 31
0.0
1001
AcDbBlockRepETag
1070
     1
1071
       78
1005
94
  0
LINE
  5
95
330
49
100
AcDbEntity
  8
0
100
AcDbLine
 10
430.8163410174038
 20
-199.2541039209432
 30
0.0
 11
430.8163410174038
 21
-203.9124009209427
 31
0.0
1001
AcDbBlockRepETag
1070
     1
1071
       79
1005
95
  0
LINE
  5
96
330
49
100
AcDbEntity
  8
0
100
AcDbLine
 10
482.057608017405
 20
-367.5334584380375
 30
0.0
 11
485.2403282622571
 21
-367.5334584380375
 31
0.0
1001
AcDbBlockRepETag
1070
     1
1071
       80
1005
96
  0
LINE
  5
97
330
49
100
AcDbEntity
  8
0
100
AcDbLine
 10
447.1203805174044
 20
-392.2390693130383
 30
0.0
 11
447.1203805174044
 21
-395.42178955789
 31
0.0
1001
AcDbBlockRepETag
1070
     1
1071
       81
1005
97
  0
TEXT
  5
98
330
49
100
AcDbEntity
  8
0
100
AcDbText
 10
464.7588809244598
 20
-395.0815456724358
 30
0.0
 40
2.528789800000094
  1
1
  7
SIMPLEX
100
AcDbText
1001
AcDbBlockRepETag
1070
     1
1071
       82
1005
98
  0
LINE
  5
99
330
49
100
AcDbEntity
  8
0
100
AcDbLine
 10
412.1831530174031
 20
-392.2390693130383
 30
0.0
 11
412.1831530174031
 21
-395.42178955789
 31
0.0
1001
AcDbBlockRepETag
1070
     1
1071
       83
1005
99
  0
TEXT
  5
9A
330
49
100
AcDbEntity
  8
0
100
AcDbText
 10
429.8216534244583
 20
-395.0815456724358
 30
0.0
 40
2.528789800000094
  1
2
  7
SIMPLEX
100
AcDbText
1001
AcDbBlockRepETag
1070
     1
1071
       84
1005
9A
  0
LINE
  5
9B
330
49
100
AcDbEntity
  8
0
100
AcDbLine
 10
377.2459255174017
 20
-392.2390693130383
 30
0.0
 11
377.2459255174017
 21
-395.42178955789
 31
0.0
1001
AcDbBlockRepETag
1070
     1
1071
       85
1005
9B
  0
TEXT
  5
9C
330
49
100
AcDbEntity
  8
0
100
AcDbText
 10
394.884425924457
 20
-395.0815456724358
 30
0.0
 40
2.528789800000094
  1
3
  7
SIMPLEX
100
AcDbText
1001
AcDbBlockRepETag
1070
     1
1071
       86
1005
9C
  0
LINE
  5
9D
330
49
100
AcDbEntity
  8
0
100
AcDbLine
 10
418.8378630174037
 20
-199.2541039209432
 30
0.0
 11
418.8378630174037
 21
-203.9124009209427
 31
0.0
1001
AcDbBlockRepETag
1070
     1
1071
       87
1005
9D
  0
LINE
  5
9E
330
49
100
AcDbEntity
  8
0
100
AcDbLine
 10
202.5597880173946
 20
-219.2997931880318
 30
0.0
 11
199.3770677725433
 21
-219.2997931880318
 31
0.0
1001
AcDbBlockRepETag
1070
     1
1071
       88
1005
9E
  0
LINE
  5
9F
330
49
100
AcDbEntity
  8
0
100
AcDbLine
 10
202.5597880173946
 20
-244.005404063033
 30
0.0
 11
199.3770677725433
 21
-244.005404063033
 31
0.0
1001
AcDbBlockRepETag
1070
     1
1071
       89
1005
9F
  0
LINE
  5
A0
330
49
100
AcDbEntity
  8
0
100
AcDbLine
 10
202.5597880173946
 20
-268.7110149380337
 30
0.0
 11
199.3770677725433
 21
-268.7110149380337
 31
0.0
1001
AcDbBlockRepETag
1070
     1
1071
       90
1005
A0
  0
LINE
  5
A1
330
49
100
AcDbEntity
  8
0
100
AcDbLine
 10
202.5597880173946
 20
-342.8278475630364
 30
0.0
 11
199.3770677725433
 21
-342.8278475630364
 31
0.0
1001
AcDbBlockRepETag
1070
     1
1071
       91
1005
A1
  0
LINE
  5
A2
330
49
100
AcDbEntity
  8
0
100
AcDbLine
 10
202.5597880173946
 20
-367.5334584380375
 30
0.0
 11
199.3770677725433
 21
-367.5334584380375
 31
0.0
1001
AcDbBlockRepETag
1070
     1
1071
       92
1005
A2
  0
TEXT
  5
A3
330
49
100
AcDbEntity
  8
0
100
AcDbText
 10
199.7146496187679
 20
-205.1619814257883
 30
0.0
 40
2.528789800000094
  1
H
  7
SIMPLEX
100
AcDbText
1001
AcDbBlockRepETag
1070
     1
1071
       93
1005
A3
  0
TEXT
  5
A4
330
49
100
AcDbEntity
  8
0
100
AcDbText
 10
199.6540263760089
 20
-232.0872589535607
 30
0.0
 40
2.528789800000094
  1
G
  7
SIMPLEX
100
AcDbText
1001
AcDbBlockRepETag
1070
     1
1071
       94
1005
A4
  0
TEXT
  5
A5
330
49
100
AcDbEntity
  8
0
100
AcDbText
 10
199.7752728615269
 20
-256.8509160007475
 30
0.0
 40
2.528789800000094
  1
F
  7
SIMPLEX
100
AcDbText
1001
AcDbBlockRepETag
1070
     1
1071
       95
1005
A5
  0
TEXT
  5
A6
330
49
100
AcDbEntity
  8
0
100
AcDbText
 10
199.6540263760089
 20
-331.2505766275553
 30
0.0
 40
2.528789800000094
  1
C
  7
SIMPLEX
100
AcDbText
1001
AcDbBlockRepETag
1070
     1
1071
       96
1005
A6
  0
TEXT
  5
A7
330
49
100
AcDbEntity
  8
0
100
AcDbText
 10
199.7146496187679
 20
-354.4485650388324
 30
0.0
 40
2.528789800000094
  1
B 
  7
SIMPLEX
100
AcDbText
1001
AcDbBlockRepETag
1070
     1
1071
       97
1005
A7
  0
TEXT
  5
A8
330
49
100
AcDbEntity
  8
0
100
AcDbText
 10
199.5934031332499
 20
-383.4538786841294
 30
0.0
 40
2.528789800000094
  1
A
  7
SIMPLEX
100
AcDbText
1001
AcDbBlockRepETag
1070
     1
1071
       98
1005
A8
  0
LINE
  5
A9
330
49
100
AcDbEntity
  8
0
100
AcDbLine
 10
482.057608017405
 20
-219.2997931880318
 30
0.0
 11
484.0184112525366
 21
-219.2997931880318
 31
0.0
1001
AcDbBlockRepETag
1070
     1
1071
       99
1005
A9
  0
LINE
  5
AA
330
49
100
AcDbEntity
  8
0
100
AcDbLine
 10
482.057608017405
 20
-244.005404063033
 30
0.0
 11
485.2403282622571
 21
-244.005404063033
 31
0.0
1001
AcDbBlockRepETag
1070
     1
1071
      100
1005
AA
  0
LINE
  5
AB
330
49
100
AcDbEntity
  8
0
100
AcDbLine
 10
482.057608017405
 20
-268.7110149380337
 30
0.0
 11
485.2403282622571
 21
-268.7110149380337
 31
0.0
1001
AcDbBlockRepETag
1070
     1
1071
      101
1005
AB
  0
LINE
  5
AC
330
49
100
AcDbEntity
  8
0
100
AcDbLine
 10
482.057608017405
 20
-293.4166258130344
 30
0.0
 11
485.2403282622571
 21
-293.4166258130344
 31
0.0
1001
AcDbBlockRepETag
1070
     1
1071
      102
1005
AC
  0
LINE
  5
AD
330
49
100
AcDbEntity
  8
0
100
AcDbLine
 10
482.057608017405
 20
-318.1222366880356
 30
0.0
 11
485.2403282622571
 21
-318.1222366880356
 31
0.0
1001
AcDbBlockRepETag
1070
     1
1071
      103
1005
AD
  0
LINE
  5
AE
330
49
100
AcDbEntity
  8
0
100
AcDbLine
 10
482.057608017405
 20
-342.8278475630364
 30
0.0
 11
485.2403282622571
 21
-342.8278475630364
 31
0.0
1001
AcDbBlockRepETag
1070
     1
1071
      104
1005
AE
  0
LINE
  5
AF
330
49
100
AcDbEntity
  8
0
100
AcDbLine
 10
237.497015517396
 20
-194.5941823130301
 30
0.0
 11
237.497015517396
 21
-191.4114620681793
 31
0.0
1001
AcDbBlockRepETag
1070
     1
1071
      105
1005
AF
  0
LINE
  5
B0
330
49
100
AcDbEntity
  8
0
100
AcDbLine
 10
272.4342430173974
 20
-194.5941823130301
 30
0.0
 11
272.4342430173974
 21
-191.4114620681793
 31
0.0
1001
AcDbBlockRepETag
1070
     1
1071
      106
1005
B0
  0
LINE
  5
B1
330
49
100
AcDbEntity
  8
0
100
AcDbLine
 10
307.3714705173988
 20
-194.5941823130301
 30
0.0
 11
307.3714705173988
 21
-191.4114620681793
 31
0.0
1001
AcDbBlockRepETag
1070
     1
1071
      107
1005
B1
  0
LINE
  5
B2
330
49
100
AcDbEntity
  8
0
100
AcDbLine
 10
342.3086980174003
 20
-194.5941823130301
 30
0.0
 11
342.3086980174003
 21
-191.4114620681793
 31
0.0
1001
AcDbBlockRepETag
1070
     1
1071
      108
1005
B2
  0
LINE
  5
B3
330
49
100
AcDbEntity
  8
0
100
AcDbLine
 10
377.2459255174017
 20
-194.5941823130301
 30
0.0
 11
377.2459255174017
 21
-191.4114620681793
 31
0.0
1001
AcDbBlockRepETag
1070
     1
1071
      109
1005
B3
  0
LINE
  5
B4
330
49
100
AcDbEntity
  8
0
100
AcDbLine
 10
412.1831530174031
 20
-203.9124009209427
 30
0.0
 11
412.1831530174031
 21
-191.4114620681793
 31
0.0
1001
AcDbBlockRepETag
1070
     1
1071
      110
1005
B4
  0
LINE
  5
B5
330
49
100
AcDbEntity
  8
0
100
AcDbLine
 10
447.1203805174044
 20
-194.5941823130301
 30
0.0
 11
447.1203805174044
 21
-191.4114620681793
 31
0.0
1001
AcDbBlockRepETag
1070
     1
1071
      111
1005
B5
  0
TEXT
  5
B6
330
49
100
AcDbEntity
  8
0
100
AcDbText
 10
427.0185640098043
 20
-193.969916346578
 30
0.0
 40
2.528789800000094
  1
2 
  7
SIMPLEX
100
AcDbText
1001
AcDbBlockRepETag
1070
     1
1071
      112
1005
B6
  0
TEXT
  5
B7
330
49
100
AcDbEntity
  8
0
100
AcDbText
 10
465.5539304597513
 20
-194.0476371840336
 30
0.0
 40
2.528789800000094
  1
1
  7
SIMPLEX
100
AcDbText
1001
AcDbBlockRepETag
1070
     1
1071
      113
1005
B7
  0
TEXT
  5
B8
330
49
100
AcDbEntity
  8
0
100
AcDbText
 10
323.2398232089181
 20
-193.8646771289714
 30
0.0
 40
2.528789800000094
  1
5
  7
SIMPLEX
100
AcDbText
1001
AcDbBlockRepETag
1070
     1
1071
      114
1005
B8
  0
TEXT
  5
B9
330
49
100
AcDbEntity
  8
0
100
AcDbText
 10
359.9471984244555
 20
-194.2978821495144
 30
0.0
 40
2.528789800000094
  1
4
  7
SIMPLEX
100
AcDbText
1001
AcDbBlockRepETag
1070
     1
1071
      115
1005
B9
  0
TEXT
  5
BA
330
49
100
AcDbEntity
  8
0
100
AcDbText
 10
392.4154635380937
 20
-193.9699163465784
 30
0.0
 40
2.528789800000094
  1
3
  7
SIMPLEX
100
AcDbText
1001
AcDbBlockRepETag
1070
     1
1071
      116
1005
BA
  0
LINE
  5
BB
330
49
100
AcDbEntity
  8
0
100
AcDbLine
 10
202.5597880173946
 20
-194.5941823130301
 30
0.0
 11
482.057608017405
 21
-194.5941823130301
 31
0.0
1001
AcDbBlockRepETag
1070
     1
1071
      117
1005
BB
  0
TEXT
  5
BC
330
49
100
AcDbEntity
  8
0
100
AcDbText
 10
255.3483364159456
 20
-193.8385018071217
 30
0.0
 40
2.528789800000094
  1
7
  7
SIMPLEX
100
AcDbText
1001
AcDbBlockRepETag
1070
     1
1071
      118
1005
BC
  0
TEXT
  5
BD
330
49
100
AcDbEntity
  8
0
100
AcDbText
 10
287.9235526980147
 20
-194.0375436189074
 30
0.0
 40
2.528789800000094
  1
6
  7
SIMPLEX
100
AcDbText
1001
AcDbBlockRepETag
1070
     1
1071
      119
1005
BD
  0
LINE
  5
BE
330
49
100
AcDbEntity
  8
0
100
AcDbLine
 10
237.497015517396
 20
-392.2390693130383
 30
0.0
 11
237.497015517396
 21
-395.42178955789
 31
0.0
1001
AcDbBlockRepETag
1070
     1
1071
      120
1005
BE
  0
LINE
  5
BF
330
49
100
AcDbEntity
  8
0
100
AcDbLine
 10
272.4342430173974
 20
-392.2390693130383
 30
0.0
 11
272.4342430173974
 21
-395.42178955789
 31
0.0
1001
AcDbBlockRepETag
1070
     1
1071
      121
1005
BF
  0
LINE
  5
C0
330
49
100
AcDbEntity
  8
0
100
AcDbLine
 10
307.3714705173988
 20
-392.2390693130383
 30
0.0
 11
307.3714705173988
 21
-395.42178955789
 31
0.0
1001
AcDbBlockRepETag
1070
     1
1071
      122
1005
C0
  0
LINE
  5
C1
330
49
100
AcDbEntity
  8
0
100
AcDbLine
 10
342.3086980174003
 20
-392.2390693130383
 30
0.0
 11
342.3086980174003
 21
-395.42178955789
 31
0.0
1001
AcDbBlockRepETag
1070
     1
1071
      123
1005
C1
  0
TEXT
  5
C2
330
49
100
AcDbEntity
  8
0
100
AcDbText
 10
462.2419611232098
 20
-202.4098247638904
 30
0.0
 40
1.653144685894946
  1
DRFT
  7
SIMPLEX
100
AcDbText
1001
AcDbBlockRepETag
1070
     1
1071
      124
1005
C2
  0
TEXT
  5
C3
330
49
100
AcDbEntity
  8
0
100
AcDbText
 10
436.2174977080494
 20
-197.8576804857293
 30
0.0
 40
1.653144685894946
  1
REVISION RECORD
  7
SIMPLEX
100
AcDbText
1001
AcDbBlockRepETag
1070
     1
1071
      125
1005
C3
  0
TEXT
  5
C4
330
49
100
AcDbEntity
  8
0
100
AcDbText
 10
438.059750879839
 20
-202.4098247638904
 30
0.0
 40
1.653144685894946
  1
DESCRIPTION
  7
SIMPLEX
100
AcDbText
1001
AcDbBlockRepETag
1070
     1
1071
      126
1005
C4
  0
TEXT
  5
C5
330
49
100
AcDbEntity
  8
0
100
AcDbText
 10
413.3063151028773
 20
-202.4098247638904
 30
0.0
 40
1.653144685894946
  1
REV
  7
SIMPLEX
100
AcDbText
1001
AcDbBlockRepETag
1070
     1
1071
      127
1005
C5
  0
TEXT
  5
C6
330
49
100
AcDbEntity
  8
0
100
AcDbText
 10
422.6283381494648
 20
-202.4383272584746
 30
0.0
 40
1.710149675063736
  1
ECN
  7
SIMPLEX
100
AcDbText
1001
AcDbBlockRepETag
1070
     1
1071
      128
1005
C6
  0
LINE
  5
C7
330
49
100
AcDbEntity
  8
0
100
AcDbLine
 10
412.1831530174031
 20
-199.2541039209432
 30
0.0
 11
482.057608017405
 21
-199.2541039209432
 31
0.0
1001
AcDbBlockRepETag
1070
     1
1071
      129
1005
C7
  0
TEXT
  5
C8
330
49
100
AcDbEntity
  8
0
100
AcDbText
 10
473.0225913232096
 20
-202.4098247638904
 30
0.0
 40
1.653144685894946
  1
DATE
  7
SIMPLEX
100
AcDbText
1001
AcDbBlockRepETag
1070
     1
1071
      130
1005
C8
  0
TEXT
  5
C9
330
49
100
AcDbEntity
  8
0
100
AcDbText
 10
323.2398232089181
 20
-395.5147506929789
 30
0.0
 40
2.528789800000094
  1
5
  7
SIMPLEX
100
AcDbText
1001
AcDbBlockRepETag
1070
     1
1071
      131
1005
C9
  0
TEXT
  5
CA
330
49
100
AcDbEntity
  8
0
100
AcDbText
 10
359.9471984244555
 20
-395.0815456724358
 30
0.0
 40
2.528789800000094
  1
4
  7
SIMPLEX
100
AcDbText
1001
AcDbBlockRepETag
1070
     1
1071
      132
1005
CA
  0
LINE
  5
CB
330
49
100
AcDbEntity
  8
0
100
AcDbLine
 10
482.057608017405
 20
-392.2390693130383
 30
0.0
 11
482.057608017405
 21
-194.5941823130301
 31
0.0
1001
AcDbBlockRepETag
1070
     1
1071
      133
1005
CB
  0
LINE
  5
CC
330
49
100
AcDbEntity
  8
0
100
AcDbLine
 10
202.5597880173946
 20
-392.2390693130383
 30
0.0
 11
482.057608017405
 21
-392.2390693130383
 31
0.0
1001
AcDbBlockRepETag
1070
     1
1071
      134
1005
CC
  0
LINE
  5
CD
330
49
100
AcDbEntity
  8
0
100
AcDbLine
 10
202.5597880173946
 20
-194.5941823130301
 30
0.0
 11
202.5597880173946
 21
-392.2390693130383
 31
0.0
1001
AcDbBlockRepETag
1070
     1
1071
      135
1005
CD
  0
TEXT
  5
CE
330
49
100
AcDbEntity
  8
0
100
AcDbText
 10
218.4756764249268
 20
-395.5415891482562
 30
0.0
 40
2.528789800000094
  1
8
  7
SIMPLEX
100
AcDbText
1001
AcDbBlockRepETag
1070
     1
1071
      136
1005
CE
  0
TEXT
  5
CF
330
49
100
AcDbEntity
  8
0
100
AcDbText
 10
255.3483364159456
 20
-395.5409260148286
 30
0.0
 40
2.528789800000094
  1
7
  7
SIMPLEX
100
AcDbText
1001
AcDbBlockRepETag
1070
     1
1071
      137
1005
CF
  0
TEXT
  5
D0
330
49
100
AcDbEntity
  8
0
100
AcDbText
 10
287.9235526980147
 20
-395.3418842030428
 30
0.0
 40
2.528789800000094
  1
6
  7
SIMPLEX
100
AcDbText
1001
AcDbBlockRepETag
1070
     1
1071
      138
1005
D0
  0
LINE
  5
D1
330
49
100
AcDbEntity
  8
0
100
AcDbLine
 10
412.1831530174031
 20
-203.9124009209427
 30
0.0
 11
482.057608017405
 21
-203.9124009209427
 31
0.0
1001
AcDbBlockRepETag
1070
     1
1071
      139
1005
D1
  0
LINE
  5
D2
330
49
100
AcDbEntity
  8
0
100
AcDbLine
 10
482.057608017405
 20
-244.005404063033
 30
0.0
 11
485.2403282622571
 21
-244.005404063033
 31
0.0
1001
AcDbBlockRepETag
1070
     1
1071
      140
1005
D2
  0
LINE
  5
D3
330
49
100
AcDbEntity
  8
0
100
AcDbLine
 10
482.057608017405
 20
-268.7110149380337
 30
0.0
 11
485.2403282622571
 21
-268.7110149380337
 31
0.0
1001
AcDbBlockRepETag
1070
     1
1071
      141
1005
D3
  0
LINE
  5
D4
330
49
100
AcDbEntity
  8
0
100
AcDbLine
 10
482.057608017405
 20
-293.4166258130344
 30
0.0
 11
485.2403282622571
 21
-293.4166258130344
 31
0.0
1001
AcDbBlockRepETag
1070
     1
1071
      142
1005
D4
  0
LINE
  5
D5
330
49
100
AcDbEntity
  8
0
100
AcDbLine
 10
482.057608017405
 20
-318.1222366880356
 30
0.0
 11
485.2403282622571
 21
-318.1222366880356
 31
0.0
1001
AcDbBlockRepETag
1070
     1
1071
      143
1005
D5
  0
POINT
  5
D6
330
49
100
AcDbEntity
  8
0
100
AcDbPoint
 10
486.1232166539601
 20
-188.4164827991608
 30
0.0
1001
AcDbBlockRepETag
1070
     1
1071
      144
1005
D6
  0
POINT
  5
D7
330
49
100
AcDbEntity
  8
0
100
AcDbPoint
 10
198.4941793808402
 20
-398.4167688269081
 30
0.0
1001
AcDbBlockRepETag
1070
     1
1071
      145
1005
D7
  0
POINT
  5
D8
330
49
100
AcDbEntity
  8
0
100
AcDbPoint
 10
198.4941793808402
 20
-188.4164827991608
 30
0.0
 50
180.0
1001
AcDbBlockRepETag
1070
     1
1071
      144
1005
D6
  0
POINT
  5
D9
330
49
100
AcDbEntity
  8
0
100
AcDbPoint
 10
486.1232166539601
 20
-398.4167688269081
 30
0.0
 50
180.0
1001
AcDbBlockRepETag
1070
     1
1071
      145
1005
D7
  0
HATCH
  5
DA
330
49
100
AcDbEntity
  8
0
 62
     1
100
AcDbHatch
 10
0.0
 20
0.0
 30
0.0
210
0.0
220
0.0
230
1.0
  2
SOLID
 70
     1
 71
     0
 91
        1
 92
        7
 72
     0
 73
     1
 93
        3
 10
419.6796459529132
 20
-364.5727035275787
 10
421.7421536313294
 20
-364.5727035275787
 10
421.7421536313294
 20
-362.5101958491628
 97
        0
 75
     0
 76
     1
 47
0.0324576959631064
 98
        1
 10
421.0713607083744
 20
-363.8742590725601
1001
AcDbBlockRepETag
1070
     1
1071
       94
1005
0
  0
HATCH
  5
DB
330
49
100
AcDbEntity
  8
0
 62
     1
100
AcDbHatch
 10
0.0
 20
0.0
 30
0.0
210
0.0
220
0.0
230
1.0
  2
SOLID
 70
     1
 71
     0
 91
        3
 92
        7
 72
     0
 73
     1
 93
        3
 10
419.6796459529132
 20
-360.447688170746
 10
417.6171382744968
 20
-362.5101958491628
 10
421.7421536313294
 20
-362.5101958491618
 97
        0
 92
        7
 72
     0
 73
     1
 93
        3
 10
421.7421536313294
 20
-362.5101958491628
 10
419.6796459529132
 20
-364.5727035275787
 10
421.7421536313294
 20
-364.5727035275787
 97
        0
 92
        7
 72
     0
 73
     1
 93
        3
 10
417.6171382744968
 20
-362.5101958491628
 10
417.6171382744968
 20
-364.5727035275787
 10
419.6796459529132
 20
-364.5727035275787
 97
        0
 75
     0
 76
     1
 47
0.0324576959631064
 98
        3
 10
420.5557013761881
 20
-361.9850833537102
 10
421.2217619451194
 20
-363.7669194037571
 10
418.9227789612149
 20
-364.0245344100672
1001
AcDbBlockRepETag
1070
     1
1071
       95
1005
0
  0
LINE
  5
DC
330
49
100
AcDbEntity
  8
0
  6
CENTER2
 62
     1
 48
0.07
370
    13
100
AcDbLine
 10
390.143772296331
 20
-386.256071792001
 30
0.0
 11
400.2194735487564
 21
-386.256071792001
 31
0.0
  0
LINE
  5
DE
330
49
100
AcDbEntity
  8
0
  6
CENTER2
 62
     1
 48
0.07
370
    13
100
AcDbLine
 10
382.5548949927033
 20
-386.256071792001
 30
0.0
 11
388.2074359613543
 21
-386.256071792001
 31
0.0
  0
LINE
  5
DF
330
49
100
AcDbEntity
  8
0
  6
CENTER2
 62
     1
 48
0.07
370
    13
100
AcDbLine
 10
385.3811654770288
 20
-383.4298013076764
 30
0.0
 11
385.3811654770288
 21
-389.0823422763274
 31
0.0
  0
ATTDEF
  5
E0
330
49
100
AcDbEntity
  8
0
100
AcDbText
 10
475.0412743044217
 20
-390.90327303302
 30
0.0
 40
1.996413000000074
  1

  7
SIMPLEX
 72
     1
 11
475.0412743044217
 21
-390.90327303302
 31
0.0
100
AcDbAttributeDefinition
  3
比例
  2
1/2
 70
     0
1001
AcDbBlockRepETag
1070
     1
1071
       31
1005
0
1001
AcDbAttr
1070
     0
1070
     1
  0
ATTDEF
  5
E1
330
49
100
AcDbEntity
  8
0
100
AcDbText
 10
472.8780615732118
 20
-386.1936308295203
 30
0.0
 40
1.996413000000074
  1
1/1
  7
SIMPLEX
 72
     1
 11
474.922008216069
 21
-386.1936308295203
 31
0.0
100
AcDbAttributeDefinition
  3
页次
  2
1/1
 70
     0
1001
AcDbBlockRepETag
1070
     1
1071
       29
1005
0
1001
AcDbAttr
1070
     0
1070
     1
  0
ATTDEF
  5
E2
330
49
100
AcDbEntity
  8
0
100
AcDbText
 10
475.0034191132454
 20
-381.5915333130379
 30
0.0
 40
1.996413000000074
  1

  7
SIMPLEX
 72
     1
 11
475.0034191132454
 21
-381.5915333130379
 31
0.0
100
AcDbAttributeDefinition
  3
版本
  2
T0-1
 70
     0
1001
AcDbBlockRepETag
1070
     1
1071
       30
1005
0
1001
AcDbAttr
1070
     0
1070
     1
  0
ATTDEF
  5
E3
330
49
100
AcDbEntity
  8
0
100
AcDbText
 10
394.8566437985073
 20
-381.5915333130379
 30
0.0
 40
1.996413000000074
  1

  7
SIMPLEX
 72
     1
 11
394.8566437985073
 21
-381.5915333130379
 31
0.0
100
AcDbAttributeDefinition
  3
设计者
  2
DONG_6/28/15"
 70
     0
1001
AcDbBlockRepETag
1070
     1
1071
       28
1005
0
1001
AcDbAttr
1070
     0
1070
     1
  0
ATTDEF
  5
E4
330
49
100
AcDbEntity
  8
0
100
AcDbText
 10
396.2118490174025
 20
-365.9529648130373
 30
0.0
 40
1.996413000000074
  1

  7
SIMPLEX
 72
     1
 11
396.2118490174025
 21
-365.9529648130373
 31
0.0
100
AcDbAttributeDefinition
  3
料号
  2
1107AYYXXD(H)
 70
     0
1001
AcDbBlockRepETag
1070
     1
1071
       33
1005
0
1001
AcDbAttr
1070
     0
1070
     1
  0
ATTDEF
  5
E5
330
49
100
AcDbEntity
  8
0
100
AcDbText
 10
444.9194256924656
 20
-375.6022943130379
 30
0.0
 40
2.395695600000089
  1

  7
arial
 72
     1
 11
444.9194256924656
 21
-375.6022943130379
 31
0.0
100
AcDbAttributeDefinition
  3
NAME
  2
15EDGKNM-3.5-XXP-1Y-1000A(H)
 70
     0
1001
AcDbBlockRepETag
1070
     1
1071
       27
1005
0
1001
AcDbAttr
1070
     0
1070
     1
  0
ATTDEF
  5
E6
330
49
100
AcDbEntity
  8
0
100
AcDbText
 10
441.6735643810178
 20
-386.2141063924588
 30
0.0
 40
1.996413000000074
  1

  7
SIMPLEX
 72
     1
 11
441.6735643810178
 21
-386.2141063924588
 31
0.0
100
AcDbAttributeDefinition
  3
图号
  2
15EDGKNM-3.5-C04
 70
     0
1001
AcDbBlockRepETag
1070
     1
1071
       32
1005
0
1001
AcDbAttr
1070
     0
1070
     1
  0
ENDBLK
  5
E7
330
49
100
AcDbEntity
  8
0
100
AcDbBlockEnd
  0
BLOCK
  5
189
330
188
100
AcDbEntity
  8
0
100
AcDbBlockBegin
  2
*D1
 70
     1
 10
0.0
 20
0.0
 30
0.0
  3
*D1
  1

  0
LINE
  5
18A
330
188
100
AcDbEntity
  8
0
 62
     0
 48
0.3
370
    -2
100
AcDbLine
 10
7402.169417382269
 20
-5823.007319929709
 30
0.0
 11
7402.169417382269
 21
-5832.382636788075
 31
0.0
  0
LINE
  5
18B
330
188
100
AcDbEntity
  8
0
 62
     0
 48
0.3
370
    -2
100
AcDbLine
 10
7406.106917382269
 20
-5823.007319929709
 30
0.0
 11
7406.106917382269
 21
-5832.382636788075
 31
0.0
  0
LINE
  5
18C
330
188
100
AcDbEntity
  8
0
 62
     0
 48
0.3
370
    -2
100
AcDbLine
 10
7399.169417382269
 20
-5831.132636788074
 30
0.0
 11
7396.169417382269
 21
-5831.132636788074
 31
0.0
  0
LINE
  5
18D
330
188
100
AcDbEntity
  8
0
 62
     0
 48
0.3
370
    -2
100
AcDbLine
 10
7409.106917382269
 20
-5831.132636788074
 30
0.0
 11
7412.106917382269
 21
-5831.132636788074
 31
0.0
  0
LINE
  5
18E
330
188
100
AcDbEntity
  8
0
 62
     0
 48
0.3
370
    -2
100
AcDbLine
 10
7402.169417382269
 20
-5831.132636788074
 30
0.0
 11
7406.106917382269
 21
-5831.132636788074
 31
0.0
  0
SOLID
  5
18F
330
188
100
AcDbEntity
  8
0
 62
     0
 48
0.3
100
AcDbTrace
 10
7399.169417382269
 20
-5830.632636788075
 30
0.0
 11
7399.169417382269
 21
-5831.632636788075
 31
0.0
 12
7402.169417382269
 22
-5831.132636788074
 32
0.0
 13
7402.169417382269
 23
-5831.132636788074
 33
0.0
  0
SOLID
  5
190
330
188
100
AcDbEntity
  8
0
 62
     0
 48
0.3
100
AcDbTrace
 10
7409.106917382269
 20
-5830.632636788075
 30
0.0
 11
7409.106917382269
 21
-5831.632636788075
 31
0.0
 12
7406.106917382269
 22
-5831.132636788074
 32
0.0
 13
7406.106917382269
 23
-5831.132636788074
 33
0.0
  0
MTEXT
  5
191
330
188
100
AcDbEntity
  8
0
 62
     0
 48
0.3
370
    13
100
AcDbMText
 10
7414.480894189908
 20
-5831.132636788074
 30
0.0
 40
3.5
 41
0.0
 71
     5
 72
     1
  1
{\f@Arial Unicode MS|b0|i0|c134|p34;H}
 73
     1
 44
1.0
1001
ACAD
1000
MTEXTBEGIN
1070
    73
1070
     1
1070
    44
1040
1.0
1070
    74
1070
     0
1000
MTEXTEND
  0
POINT
  5
192
330
188
100
AcDbEntity
  8
Defpoints
 62
     0
 48
0.3
100
AcDbPoint
 10
7402.169417382269
 20
-5822.382319929709
 30
0.0
  0
POINT
  5
194
330
188
100
AcDbEntity
  8
Defpoints
 62
     0
 48
0.3
100
AcDbPoint
 10
7406.106917382269
 20
-5822.382319929709
 30
0.0
  0
POINT
  5
195
330
188
100
AcDbEntity
  8
Defpoints
 62
     0
 48
0.3
100
AcDbPoint
 10
7406.106917382269
 20
-5831.132636788074
 30
0.0
  0
ENDBLK
  5
196
330
188
100
AcDbEntity
  8
0
100
AcDbBlockEnd
  0
BLOCK
  5
199
330
198
100
AcDbEntity
  8
0
100
AcDbBlockBegin
  2
*D2
 70
     1
 10
0.0
 20
0.0
 30
0.0
  3
*D2
  1

  0
LINE
  5
19A
330
198
100
AcDbEntity
  8
0
 62
     0
 48
0.3
370
    -2
100
AcDbLine
 10
7444.715031538516
 20
-5812.632994568395
 30
0.0
 11
7444.715031538516
 21
-5834.095838356661
 31
0.0
  0
LINE
  5
19B
330
198
100
AcDbEntity
  8
0
 62
     0
 48
0.3
370
    -2
100
AcDbLine
 10
7478.465031538515
 20
-5812.632994568394
 30
0.0
 11
7478.465031538515
 21
-5834.095838356661
 31
0.0
  0
LINE
  5
19C
330
198
100
AcDbEntity
  8
0
 62
     0
 48
0.3
370
    -2
100
AcDbLine
 10
7447.715031538516
 20
-5832.845838356661
 30
0.0
 11
7456.788019260208
 21
-5832.845838356661
 31
0.0
  0
LINE
  5
19D
330
198
100
AcDbEntity
  8
0
 62
     0
 48
0.3
370
    -2
100
AcDbLine
 10
7475.465031538515
 20
-5832.845838356661
 30
0.0
 11
7466.392043816823
 21
-5832.845838356661
 31
0.0
  0
SOLID
  5
19E
330
198
100
AcDbEntity
  8
0
 62
     0
 48
0.3
100
AcDbTrace
 10
7447.715031538516
 20
-5832.345838356662
 30
0.0
 11
7447.715031538516
 21
-5833.345838356661
 31
0.0
 12
7444.715031538516
 22
-5832.845838356661
 32
0.0
 13
7444.715031538516
 23
-5832.845838356661
 33
0.0
  0
SOLID
  5
19F
330
198
100
AcDbEntity
  8
0
 62
     0
 48
0.3
100
AcDbTrace
 10
7475.465031538515
 20
-5832.345838356662
 30
0.0
 11
7475.465031538515
 21
-5833.345838356661
 31
0.0
 12
7478.465031538515
 22
-5832.845838356661
 32
0.0
 13
7478.465031538515
 23
-5832.845838356661
 33
0.0
  0
MTEXT
  5
1A0
330
198
100
AcDbEntity
  8
0
 62
     0
 48
0.3
370
    13
100
AcDbMText
 10
7461.590031538515
 20
-5832.845838356661
 30
0.0
 40
3.5
 41
0.0
 71
     5
 72
     1
  1
{\f@Arial Unicode MS|b0|i0|c134|p34;SW}
 73
     1
 44
1.0
1001
ACAD
1000
MTEXTBEGIN
1070
    73
1070
     1
1070
    44
1040
1.0
1070
    74
1070
     0
1000
MTEXTEND
  0
POINT
  5
1A1
330
198
100
AcDbEntity
  8
Defpoints
 62
     0
 48
0.3
100
AcDbPoint
 10
7444.715031538516
 20
-5812.007994568395
 30
0.0
  0
POINT
  5
1A2
330
198
100
AcDbEntity
  8
Defpoints
 62
     0
 48
0.3
100
AcDbPoint
 10
7478.465031538515
 20
-5812.007994568394
 30
0.0
  0
POINT
  5
1A3
330
198
100
AcDbEntity
  8
Defpoints
 62
     0
 48
0.3
100
AcDbPoint
 10
7478.465031538515
 20
-5832.845838356661
 30
0.0
  0
ENDBLK
  5
1A4
330
198
100
AcDbEntity
  8
0
100
AcDbBlockEnd
  0
ENDSEC
  0
SECTION
  2
ENTITIES
  0
INSERT
  5
48
330
2
100
AcDbEntity
  8
1
  6
Continuous
100
AcDbBlockReference
 66
     1
  2
SGERGR
 10
7025.327085104862
 20
-5533.720500062833
 30
0.0
  0
ATTRIB
  5
E8
330
48
100
AcDbEntity
  8
0
100
AcDbText
 10
7500.368359409283
 20
-5924.623773095852
 30
0.0
 40
1.996413000000074
  1

  7
SIMPLEX
 72
     1
 11
7500.368359409283
 21
-5924.623773095852
 31
0.0
100
AcDbAttribute
  2
1/2
 70
     0
1001
AcDbBlockRepETag
1070
     1
1071
       31
1005
0
1001
AcDbAttr
1070
     0
1070
     1
  0
ATTRIB
  5
E9
330
48
100
AcDbEntity
  8
0
 62
     3
100
AcDbText
 10
7498.205146678074
 20
-5919.914130892354
 30
0.0
 40
1.996413000000074
  1
1/1
  7
SIMPLEX
 72
     1
 11
7500.249093320931
 21
-5919.914130892354
 31
0.0
100
AcDbAttribute
  2
1/1
 70
     0
1001
AcDbBlockRepETag
1070
     1
1071
       29
1005
0
1001
AcDbAttr
1070
     0
1070
     1
  0
ATTRIB
  5
EA
330
48
100
AcDbEntity
  8
0
 62
     3
100
AcDbText
 10
7496.908081932392
 20
-5915.312033375871
 30
0.0
 40
1.996413000000074
  1
D0-1
  7
SIMPLEX
 72
     1
 11
7500.330504218107
 21
-5915.312033375871
 31
0.0
100
AcDbAttribute
  2
T0-1
 70
     0
1001
AcDbBlockRepETag
1070
     1
1071
       30
1005
0
1001
AcDbAttr
1070
     0
1070
     1
  0
ATTRIB
  5
EB
330
48
100
AcDbEntity
  8
0
 62
     3
100
AcDbText
 10
7406.398972474796
 20
-5915.312033375871
 30
0.0
 40
1.996413000000074
  1
Mr.Yang2016.08.18
  7
SIMPLEX
 72
     1
 11
7420.183728903369
 21
-5915.312033375871
 31
0.0
100
AcDbAttribute
  2
DONG_6/28/15"
 70
     0
1001
AcDbBlockRepETag
1070
     1
1071
       28
1005
0
1001
AcDbAttr
1070
     0
1070
     1
  0
ATTRIB
  5
EC
330
48
100
AcDbEntity
  8
0
 62
     3
100
AcDbText
 10
7420.683328550835
 20
-5899.673464875871
 30
0.0
 40
1.996413000000074
  1
/
  7
SIMPLEX
 72
     1
 11
7421.538934122264
 21
-5899.673464875871
 31
0.0
100
AcDbAttribute
  2
1107AYYXXD(H)
 70
     0
1001
AcDbBlockRepETag
1070
     1
1071
       33
1005
0
1001
AcDbAttr
1070
     0
1070
     1
  0
ATTRIB
  5
ED
330
48
100
AcDbEntity
  8
0
 62
     3
100
AcDbText
 10
7458.249239823657
 20
-5909.322794375872
 30
0.0
 40
2.395695600000089
  1
Plastics lock nut
  7
arial
 72
     1
 11
7470.246510797328
 21
-5909.322794375872
 31
0.0
100
AcDbAttribute
  2
15EDGKNM-3.5-XXP-1Y-1000A(H)
 70
     0
1001
AcDbBlockRepETag
1070
     1
1071
       27
1005
0
1001
AcDbAttr
1070
     0
1070
     1
  0
ATTRIB
  5
EE
330
48
100
AcDbEntity
  8
0
 62
     3
100
AcDbText
 10
7467.000649485879
 20
-5919.934606455292
 30
0.0
 40
1.996413000000074
  1

 41
0.85
  7
SIMPLEX
 72
     1
 11
7467.000649485879
 21
-5919.934606455292
 31
0.0
100
AcDbAttribute
  2
15EDGKNM-3.5-C04
 70
     0
1001
AcDbBlockRepETag
1070
     1
1071
       32
1005
0
1001
AcDbAttr
1070
     0
1070
     1
  0
SEQEND
  5
EF
330
48
100
AcDbEntity
  8
1
  6
Continuous
  0
LINE
  5
F0
330
2
100
AcDbEntity
  8
0
370
    -3
100
AcDbLine
 10
7227.886873122257
 20
-5728.314682375863
 30
0.0
 11
7344.780256401691
 21
-5728.314682375863
 31
0.0
  0
LINE
  5
F1
330
2
100
AcDbEntity
  8
0
370
    -3
100
AcDbLine
 10
7227.886873122257
 20
-5728.314682375863
 30
0.0
 11
7227.886873122257
 21
-5740.887453028774
 31
0.0
  0
LINE
  5
F2
330
2
100
AcDbEntity
  8
0
370
    -3
100
AcDbLine
 10
7227.886873122257
 20
-5740.887453028774
 30
0.0
 11
7227.886873122257
 21
-5810.887453028774
 31
0.0
  0
LINE
  5
F4
330
2
100
AcDbEntity
  8
0
  6
Continuous
 62
     7
100
AcDbLine
 10
7418.540441504607
 20
-5868.41992652729
 30
0.0
 11
7418.865875673708
 21
-5869.55841473339
 31
0.0
  0
LINE
  5
F5
330
2
100
AcDbEntity
  8
0
  6
Continuous
 62
     7
100
AcDbLine
 10
7419.819353266807
 20
-5862.844513940991
 30
0.0
 11
7424.409500486207
 21
-5855.96028148889
 31
0.0
  0
LINE
  5
F6
330
2
100
AcDbEntity
  8
0
  6
Continuous
 62
     7
100
AcDbLine
 10
7425.221234916107
 20
-5877.888026908388
 30
0.0
 11
7420.553976012408
 21
-5872.075223933389
 31
0.0
  0
LINE
  5
F7
330
2
100
AcDbEntity
  8
0
  6
Continuous
 62
     7
100
AcDbLine
 10
7419.860684112108
 20
-5869.64983588809
 30
0.0
 11
7424.527944403208
 21
-5875.462640591091
 31
0.0
  0
LINE
  5
F8
330
2
100
AcDbEntity
  8
0
  6
Continuous
 62
     7
100
AcDbLine
 10
7432.684540923507
 20
-5880.42929737949
 30
0.0
 11
7441.941945682308
 21
-5879.357869948891
 31
0.0
  0
LINE
  5
F9
330
2
100
AcDbEntity
  8
0
  6
Continuous
 62
     7
100
AcDbLine
 10
7426.541478147408
 20
-5879.11793688859
 30
0.0
 11
7426.216043978307
 21
-5877.979448682491
 31
0.0
  0
LINE
  5
FA
330
2
100
AcDbEntity
  8
0
  6
Continuous
 62
     7
100
AcDbLine
 10
7441.248655851608
 20
-5876.93248260839
 30
0.0
 11
7431.991248341107
 21
-5878.00391035749
 31
0.0
  0
LINE
  5
FB
330
2
100
AcDbEntity
  8
0
  6
Continuous
 62
     7
100
AcDbLine
 10
7429.191686749509
 20
-5878.992660937091
 30
0.0
 11
7429.517120918608
 21
-5880.13114914329
 31
0.0
  0
LINE
  5
FC
330
2
100
AcDbEntity
  8
0
  6
Continuous
 62
     7
100
AcDbLine
 10
7444.741508579807
 20
-5878.369118965289
 30
0.0
 11
7444.416074410708
 21
-5877.230630759189
 31
0.0
  0
LINE
  5
FD
330
2
100
AcDbEntity
  8
0
  6
Continuous
 62
     7
100
AcDbLine
 10
7447.375238443807
 20
-5875.53053973329
 30
0.0
 11
7447.700672612906
 21
-5876.66902793939
 31
0.0
  0
LINE
  5
FE
330
2
100
AcDbEntity
  8
0
  6
Continuous
 62
     7
100
AcDbLine
 10
7453.260776163507
 20
-5865.78419797539
 30
0.0
 11
7448.670628944106
 21
-5872.66843042749
 31
0.0
  0
LINE
  5
FF
330
2
100
AcDbEntity
  8
0
  6
Continuous
 62
     7
100
AcDbLine
 10
7431.831473578707
 20
-5851.696229308091
 30
0.0
 11
7441.088881089206
 21
-5850.624801558989
 31
0.0
  0
LINE
  5
100
330
2
100
AcDbEntity
  8
0
  6
Continuous
 62
     7
100
AcDbLine
 10
7449.363920832808
 20
-5875.093816585589
 30
0.0
 11
7453.954066687808
 21
-5868.20958617989
 31
0.0
  0
LINE
  5
101
330
2
100
AcDbEntity
  8
0
  6
Continuous
 62
     7
100
AcDbLine
 10
7453.219445318108
 20
-5858.97887602819
 30
0.0
 11
7448.552185027008
 21
-5853.16607132529
 31
0.0
  0
LINE
  5
102
330
2
100
AcDbEntity
  8
0
  6
Continuous
 62
     7
100
AcDbLine
 10
7455.249457800409
 20
-5865.347475606291
 30
0.0
 11
7454.924023631306
 21
-5864.20898740019
 31
0.0
  0
LINE
  5
103
330
2
100
AcDbEntity
  8
0
  6
Continuous
 62
     7
100
AcDbLine
 10
7454.907544893207
 20
-5861.495684119589
 30
0.0
 11
7455.232979062308
 21
-5862.63417232569
 31
0.0
  0
LINE
  5
104
330
2
100
AcDbEntity
  8
0
  6
Continuous
 62
     7
100
AcDbLine
 10
7444.715031538516
 20
-5815.038870703226
 30
0.0
 11
7444.715031538516
 21
-5799.572677732726
 31
0.0
  0
LINE
  5
105
330
2
100
AcDbEntity
  8
0
  6
Continuous
 62
     7
100
AcDbLine
 10
7446.455473532316
 20
-5796.558143771725
 30
0.0
 11
7459.849589544616
 21
-5788.825047286525
 31
0.0
  0
LINE
  5
106
330
2
100
AcDbEntity
  8
0
  6
Continuous
 62
     7
100
AcDbLine
 10
7459.849589544616
 20
-5825.786501149526
 30
0.0
 11
7446.455473532316
 21
-5818.053404664223
 31
0.0
  0
LINE
  5
107
330
2
100
AcDbEntity
  8
0
  6
Continuous
 62
     7
100
AcDbLine
 10
7478.465031538515
 20
-5815.038870703226
 30
0.0
 11
7478.465031538515
 21
-5799.572677732726
 31
0.0
  0
LINE
  5
108
330
2
100
AcDbEntity
  8
0
  6
Continuous
 62
     7
100
AcDbLine
 10
7463.330473532315
 20
-5825.786501149526
 30
0.0
 11
7476.724589544616
 21
-5818.053404664223
 31
0.0
  0
LINE
  5
109
330
2
100
AcDbEntity
  8
0
  6
Continuous
 62
     7
100
AcDbLine
 10
7463.330473532315
 20
-5788.825047286525
 30
0.0
 11
7476.724589544616
 21
-5796.558143771725
 31
0.0
  0
LINE
  5
10A
330
2
100
AcDbEntity
  8
0
  6
Continuous
 62
     7
100
AcDbLine
 10
7402.169417382271
 20
-5825.868274218025
 30
0.0
 11
7405.062307738671
 21
-5825.868274218025
 31
0.0
  0
LINE
  5
10B
330
2
100
AcDbEntity
  8
0
  6
Continuous
 62
     7
100
AcDbLine
 10
7402.169417382269
 20
-5825.786501149526
 30
0.0
 11
7405.062307738671
 21
-5825.786501149526
 31
0.0
  0
LINE
  5
10C
330
2
100
AcDbEntity
  8
0
  6
Continuous
 62
     7
100
AcDbLine
 10
7405.062307738671
 20
-5818.053404664223
 30
0.0
 11
7402.169417382269
 21
-5818.053404664225
 31
0.0
  0
LINE
  5
10D
330
2
100
AcDbEntity
  8
0
  6
Continuous
 62
     7
100
AcDbLine
 10
7402.169417382269
 20
-5815.038870703226
 30
0.0
 11
7405.062307738671
 21
-5815.038870703226
 31
0.0
  0
LINE
  5
10E
330
2
100
AcDbEntity
  8
0
  6
Continuous
 62
     7
100
AcDbLine
 10
7402.169417382271
 20
-5825.868274218025
 30
0.0
 11
7402.169417382269
 21
-5788.743274218024
 31
0.0
  0
LINE
  5
10F
330
2
100
AcDbEntity
  8
0
  6
Continuous
 62
     7
100
AcDbLine
 10
7405.062307738671
 20
-5825.868274218025
 30
0.0
 11
7405.062307738671
 21
-5825.786501149526
 31
0.0
  0
LINE
  5
110
330
2
100
AcDbEntity
  8
0
  6
Continuous
 62
     7
100
AcDbLine
 10
7405.062307738671
 20
-5818.053404664223
 30
0.0
 11
7405.062307738671
 21
-5815.038870703226
 31
0.0
  0
LINE
  5
111
330
2
100
AcDbEntity
  8
0
  6
Continuous
 62
     7
100
AcDbLine
 10
7405.062307738671
 20
-5799.572677732726
 30
0.0
 11
7405.062307738671
 21
-5796.558143771725
 31
0.0
  0
LINE
  5
112
330
2
100
AcDbEntity
  8
0
  6
Continuous
 62
     7
100
AcDbLine
 10
7405.062307738671
 20
-5788.825047286525
 30
0.0
 11
7405.062307738671
 21
-5788.743274218024
 31
0.0
  0
LINE
  5
113
330
2
100
AcDbEntity
  8
0
  6
Continuous
 62
     7
100
AcDbLine
 10
7406.106917382269
 20
-5824.823664732525
 30
0.0
 11
7406.106917382269
 21
-5789.787883703525
 31
0.0
  0
LINE
  5
114
330
2
100
AcDbEntity
  8
0
  6
Continuous
 62
     7
100
AcDbLine
 10
7405.062307738671
 20
-5799.572677732726
 30
0.0
 11
7402.169417382269
 21
-5799.572677732726
 31
0.0
  0
LINE
  5
115
330
2
100
AcDbEntity
  8
0
  6
Continuous
 62
     7
100
AcDbLine
 10
7402.169417382269
 20
-5796.558143771725
 30
0.0
 11
7405.062307738671
 21
-5796.558143771725
 31
0.0
  0
LINE
  5
116
330
2
100
AcDbEntity
  8
0
  6
Continuous
 62
     7
100
AcDbLine
 10
7406.106917382269
 20
-5824.823664732525
 30
0.0
 11
7405.062307738671
 21
-5825.868274218025
 31
0.0
  0
LINE
  5
117
330
2
100
AcDbEntity
  8
0
  6
Continuous
 62
     7
100
AcDbLine
 10
7406.106917382269
 20
-5789.787883703525
 30
0.0
 11
7405.062307738671
 21
-5788.743274218024
 31
0.0
  0
LINE
  5
118
330
2
100
AcDbEntity
  8
0
  6
Continuous
 62
     7
100
AcDbLine
 10
7405.062307738671
 20
-5788.825047286525
 30
0.0
 11
7402.169417382269
 21
-5788.825047286525
 31
0.0
  0
LINE
  5
119
330
2
100
AcDbEntity
  8
0
  6
Continuous
 62
     7
100
AcDbLine
 10
7402.169417382269
 20
-5788.743274218024
 30
0.0
 11
7405.062307738671
 21
-5788.743274218024
 31
0.0
  0
ARC
  5
11A
330
2
100
AcDbEntity
  8
0
  6
Continuous
 62
     7
100
AcDbCircle
 10
7434.705001888108
 20
-5857.44085588849
 30
0.0
 40
23.210421409
100
AcDbArc
 50
295.6208442347935
 51
299.8617383369798
  0
ARC
  5
11B
330
2
100
AcDbEntity
  8
0
  6
Continuous
 62
     7
100
AcDbCircle
 10
7439.014320395408
 20
-5873.51038110139
 30
0.0
 40
23.0942809661
100
AcDbArc
 50
115.6101756625032
 51
119.87240690929
  0
ARC
  5
11C
330
2
100
AcDbEntity
  8
0
  6
Continuous
 62
     7
100
AcDbCircle
 10
7434.433666002407
 20
-5856.40522954559
 30
0.0
 40
23.094280966
100
AcDbArc
 50
295.6101756625032
 51
299.8724069092901
  0
ARC
  5
11D
330
2
100
AcDbEntity
  8
0
  6
Continuous
 62
     7
100
AcDbCircle
 10
7435.091492759909
 20
-5858.121479698791
 30
0.0
 40
22.4277275332
100
AcDbArc
 50
299.8712220136014
 51
304.2090414081845
  0
ARC
  5
11E
330
2
100
AcDbEntity
  8
0
  6
Continuous
 62
     7
100
AcDbCircle
 10
7438.602679110608
 20
-5872.805992176491
 30
0.0
 40
22.2784540523
100
AcDbArc
 50
119.8566825399889
 51
124.2235808818881
  0
ARC
  5
11F
330
2
100
AcDbEntity
  8
0
  6
Continuous
 62
     7
100
AcDbCircle
 10
7434.845307287208
 20
-5857.109618470489
 30
0.0
 40
22.2784540523
100
AcDbArc
 50
299.8566825399889
 51
304.2235808818881
  0
ARC
  5
120
330
2
100
AcDbEntity
  8
0
  6
Continuous
 62
     7
100
AcDbCircle
 10
7439.364880650008
 20
-5870.085794794388
 30
0.0
 40
20.5716679437
100
AcDbArc
 50
130.2510390643805
 51
136.6345772977908
  0
ARC
  5
121
330
2
100
AcDbEntity
  8
0
  6
Continuous
 62
     7
100
AcDbCircle
 10
7468.215336563108
 20
-5879.908845700988
 30
0.0
 40
20.5704776347
100
AcDbArc
 50
130.2508541815807
 51
136.6347621805044
  0
ARC
  5
122
330
2
100
AcDbEntity
  8
0
  6
Continuous
 62
     7
100
AcDbCircle
 10
7434.409360103808
 20
-5860.96916992569
 30
0.0
 40
20.5704771424
100
AcDbArc
 50
310.2508537995957
 51
316.6347649683779
  0
ARC
  5
123
330
2
100
AcDbEntity
  8
0
  6
Continuous
 62
     7
100
AcDbCircle
 10
7440.176405932806
 20
-5864.88561017779
 30
0.0
 40
9.960970550499999
100
AcDbArc
 50
51.22952233280776
 51
52.26912794810267
  0
ARC
  5
124
330
2
100
AcDbEntity
  8
0
  6
Continuous
 62
     7
100
AcDbCircle
 10
7440.256214197508
 20
-5863.496836298989
 30
0.0
 40
9.4115531556
100
AcDbArc
 50
343.2908902474885
 51
346.6862508405901
  0
ARC
  5
125
330
2
100
AcDbEntity
  8
0
  6
Continuous
 62
     7
100
AcDbCircle
 10
7440.824689288807
 20
-5864.184243566789
 30
0.0
 40
9.004830850999997
100
AcDbArc
 50
40.7700848487894
 51
42.97686915748307
  0
ARC
  5
126
330
2
100
AcDbEntity
  8
0
  6
Continuous
 62
     7
100
AcDbCircle
 10
7441.329522134608
 20
-5864.94970979799
 30
0.0
 40
8.703450405699999
100
AcDbArc
 50
38.43936352150222
 51
38.65157826409113
  0
ARC
  5
127
330
2
100
AcDbEntity
  8
0
  6
Continuous
 62
     7
100
AcDbCircle
 10
7441.328341387209
 20
-5864.90701341059
 30
0.0
 40
8.691978192799997
100
AcDbArc
 50
38.20482941620825
 51
38.43935384000476
  0
ARC
  5
128
330
2
100
AcDbEntity
  8
0
  6
Continuous
 62
     7
100
AcDbCircle
 10
7441.076654629608
 20
-5863.96988320439
 30
0.0
 40
8.6740259424
100
AcDbArc
 50
33.1863154200833
 51
40.78459629102101
  0
ARC
  5
129
330
2
100
AcDbEntity
  8
0
  6
Continuous
 62
     7
100
AcDbCircle
 10
7441.354972559608
 20
-5863.778645342492
 30
0.0
 40
8.336430002
100
AcDbArc
 50
29.56292114448002
 51
33.1333594943873
  0
ARC
  5
12A
330
2
100
AcDbEntity
  8
0
  6
Continuous
 62
     7
100
AcDbCircle
 10
7441.772766732906
 20
-5864.61570558459
 30
0.0
 40
8.159879826799999
100
AcDbArc
 50
27.67133256539545
 51
27.87600807948738
  0
ARC
  5
12B
330
2
100
AcDbEntity
  8
0
  6
Continuous
 62
     7
100
AcDbCircle
 10
7441.529751354808
 20
-5863.67963057919
 30
0.0
 40
8.135553077699999
100
AcDbArc
 50
22.63349045879113
 51
29.56367986669418
  0
ARC
  5
12C
330
2
100
AcDbEntity
  8
0
  6
Continuous
 62
     7
100
AcDbCircle
 10
7441.842208406308
 20
-5864.580772069289
 30
0.0
 40
8.082157485899999
100
AcDbArc
 50
22.79796694430251
 51
27.68062370271728
  0
ARC
  5
12D
330
2
100
AcDbEntity
  8
0
  6
Continuous
 62
     7
100
AcDbCircle
 10
7441.887313905907
 20
-5864.56137995429
 30
0.0
 40
8.033061665199998
100
AcDbArc
 50
22.53312891788648
 51
22.7951172678046
  0
ARC
  5
12E
330
2
100
AcDbEntity
  8
0
  6
Continuous
 62
     7
100
AcDbCircle
 10
7441.914204397308
 20
-5864.550433181189
 30
0.0
 40
8.004029051399998
100
AcDbArc
 50
19.5057655386011
 51
22.53451644539828
  0
ARC
  5
12F
330
2
100
AcDbEntity
  8
0
  6
Continuous
 62
     7
100
AcDbCircle
 10
7441.656709513506
 20
-5863.623526766491
 30
0.0
 40
7.9967823771
100
AcDbArc
 50
16.51494347030705
 51
22.61253273930906
  0
ARC
  5
130
330
2
100
AcDbEntity
  8
0
  6
Continuous
 62
     7
100
AcDbCircle
 10
7441.662886528607
 20
-5863.61932166389
 30
0.0
 40
7.9896838784
100
AcDbArc
 50
9.105523428180395
 51
15.68023150500802
  0
ARC
  5
131
330
2
100
AcDbEntity
  8
0
  6
Continuous
 62
     7
100
AcDbCircle
 10
7441.687529006407
 20
-5863.613576619688
 30
0.0
 40
7.9644058786
100
AcDbArc
 50
15.95436537709624
 51
16.50934120138983
  0
ARC
  5
132
330
2
100
AcDbEntity
  8
0
  6
Continuous
 62
     7
100
AcDbCircle
 10
7431.375632158408
 20
-5866.247620516189
 30
0.0
 40
7.696710989899998
100
AcDbArc
 50
201.8051216908222
 51
202.0798666064764
  0
ARC
  5
133
330
2
100
AcDbEntity
  8
0
  6
Continuous
 62
     7
100
AcDbCircle
 10
7461.590031538515
 20
-5807.305774218025
 30
0.0
 40
18.5625
100
AcDbArc
 50
264.6199773287051
 51
275.380022671295
  0
ARC
  5
134
330
2
100
AcDbEntity
  8
0
  6
Continuous
 62
     7
100
AcDbCircle
 10
7461.590031538515
 20
-5807.305774218025
 30
0.0
 40
18.5625
100
AcDbArc
 50
324.61997732871
 51
335.3800226713045
  0
ARC
  5
135
330
2
100
AcDbEntity
  8
0
  6
Continuous
 62
     7
100
AcDbCircle
 10
7461.590031538515
 20
-5807.305774218025
 30
0.0
 40
18.5625
100
AcDbArc
 50
24.61997732869548
 51
35.38002267129004
  0
ARC
  5
136
330
2
100
AcDbEntity
  8
0
  6
Continuous
 62
     7
100
AcDbCircle
 10
7461.590031538515
 20
-5807.305774218025
 30
0.0
 40
18.5625
100
AcDbArc
 50
84.61997732870505
 51
95.38002267129495
  0
ARC
  5
137
330
2
100
AcDbEntity
  8
0
  6
Continuous
 62
     7
100
AcDbCircle
 10
7461.590031538515
 20
-5807.305774218025
 30
0.0
 40
18.5625
100
AcDbArc
 50
144.61997732871
 51
155.3800226713045
  0
ARC
  5
138
330
2
100
AcDbEntity
  8
0
  6
Continuous
 62
     7
100
AcDbCircle
 10
7461.590031538515
 20
-5807.305774218025
 30
0.0
 40
18.5625
100
AcDbArc
 50
204.6199773286955
 51
215.3800226712899
  0
ARC
  5
139
330
2
100
AcDbEntity
  8
0
  6
Continuous
 62
     7
100
AcDbCircle
 10
7461.590031538515
 20
-5807.305774218025
 30
0.0
 40
17.5178908897
100
AcDbArc
 50
75.57050040168377
 51
104.4294995982088
  0
ARC
  5
13A
330
2
100
AcDbEntity
  8
0
  6
Continuous
 62
     7
100
AcDbCircle
 10
7461.590031538515
 20
-5807.305774218025
 30
0.0
 40
17.5178908897
100
AcDbArc
 50
135.570500401702
 51
164.4294995983034
  0
ARC
  5
13B
330
2
100
AcDbEntity
  8
0
  6
Continuous
 62
     7
100
AcDbCircle
 10
7461.590031538515
 20
-5807.305774218025
 30
0.0
 40
17.5178908897
100
AcDbArc
 50
15.5705004016966
 51
44.42949959829799
  0
ARC
  5
13C
330
2
100
AcDbEntity
  8
0
  6
Continuous
 62
     7
100
AcDbCircle
 10
7461.590031538515
 20
-5807.305774218025
 30
0.0
 40
17.5178908897
100
AcDbArc
 50
315.5705004017757
 51
344.429499598189
  0
ARC
  5
13D
330
2
100
AcDbEntity
  8
0
  6
Continuous
 62
     7
100
AcDbCircle
 10
7461.590031538515
 20
-5807.305774218025
 30
0.0
 40
17.5178908897
100
AcDbArc
 50
195.5705004016966
 51
224.429499598298
  0
ARC
  5
13E
330
2
100
AcDbEntity
  8
0
  6
Continuous
 62
     7
100
AcDbCircle
 10
7461.590031538515
 20
-5807.305774218025
 30
0.0
 40
17.5178908897
100
AcDbArc
 50
255.5705004016838
 51
284.4294995983162
  0
ARC
  5
13F
330
2
100
AcDbEntity
  8
0
  6
Continuous
 62
     7
100
AcDbCircle
 10
7461.590031538515
 20
-5807.305774218025
 30
0.0
 40
13.70625
100
AcDbArc
 50
356.4380136005027
 51
176.571297587506
  0
ARC
  5
140
330
2
100
AcDbEntity
  8
0
  6
Continuous
 62
     7
100
AcDbCircle
 10
7461.525214250615
 20
-5807.445734786725
 30
0.0
 40
13.6504943144
100
AcDbArc
 50
134.091870736614
 51
175.9686128001999
  0
ARC
  5
141
330
2
100
AcDbEntity
  8
0
  6
Continuous
 62
     7
100
AcDbCircle
 10
7462.079336922215
 20
-5807.021865887925
 30
0.0
 40
13.1631828153
100
AcDbArc
 50
293.1210838915748
 51
306.955207525118
  0
CIRCLE
  5
142
330
2
100
AcDbEntity
  8
0
  6
Continuous
 62
     7
100
AcDbCircle
 10
7461.590031538515
 20
-5807.305774218025
 30
0.0
 40
13.10625
  0
SPLINE
  5
143
330
2
100
AcDbEntity
  8
0
  6
Continuous
 62
     7
100
AcDbSpline
210
0.0
220
0.0
230
1.0
 70
     8
 71
     3
 72
    17
 73
    13
 74
     0
 42
0.0000000001
 43
0.0000000001
 40
0.0
 40
0.0
 40
0.0
 40
0.0
 40
0.1352535831
 40
0.270832522
 40
0.3381517672
 40
0.4047942639000002
 40
0.5350298252000001
 40
0.6600947559
 40
0.7790904669
 40
0.8919866745999998
 40
0.9465297553
 40
1.0
 40
1.0
 40
1.0
 40
1.0
 10
7430.173065985808
 20
-5855.030523334189
 30
0.0
 10
7430.995304184206
 20
-5854.63286657279
 30
0.0
 10
7432.704193419907
 20
-5853.959823565589
 30
0.0
 10
7434.937184788307
 20
-5853.442209278188
 30
0.0
 10
7436.746927111109
 20
-5853.233075310491
 30
0.0
 10
7438.531140377907
 20
-5853.164563639889
 30
0.0
 10
7440.708702205107
 20
-5853.336002544089
 30
0.0
 10
7443.171923953407
 20
-5853.95874880489
 30
0.0
 10
7445.372699928907
 20
-5854.978490696391
 30
0.0
 10
7446.934705553307
 20
-5856.14902258129
 30
0.0
 10
7447.954358704406
 20
-5857.241991822388
 30
0.0
 10
7448.384700989507
 20
-5857.83375656309
 30
0.0
 10
7448.577958730007
 20
-5858.138761916292
 30
0.0
  0
SPLINE
  5
144
330
2
100
AcDbEntity
  8
0
  6
Continuous
 62
     7
100
AcDbSpline
210
0.0
220
0.0
230
1.0
 70
     8
 71
     3
 72
     9
 73
     5
 74
     0
 42
0.0000000001
 43
0.0000000001
 40
0.0
 40
0.0
 40
0.0
 40
0.0
 40
0.2463542262
 40
1.0
 40
1.0
 40
1.0
 40
1.0
 10
7429.031911987107
 20
-5852.68497988769
 30
0.0
 10
7429.257804535108
 20
-5852.59310170459
 30
0.0
 10
7430.178689668108
 20
-5852.22998712499
 30
0.0
 10
7431.116522575907
 20
-5851.90929430179
 30
0.0
 10
7431.831473578707
 20
-5851.696229308091
 30
0.0
  0
SPLINE
  5
145
330
2
100
AcDbEntity
  8
0
  6
Continuous
 62
     7
100
AcDbSpline
210
0.0
220
0.0
230
1.0
 70
     8
 71
     3
 72
     9
 73
     5
 74
     0
 42
0.0000000001
 43
0.0000000001
 40
0.0
 40
0.0
 40
0.0
 40
0.0
 40
0.2475613059
 40
1.0
 40
1.0
 40
1.0
 40
1.0
 10
7419.819353266807
 20
-5862.844513940991
 30
0.0
 10
7419.705037882607
 20
-5863.077221230689
 30
0.0
 10
7419.251606688307
 20
-5864.021311444989
 30
0.0
 10
7418.828802613107
 20
-5864.979948891591
 30
0.0
 10
7418.523962766506
 20
-5865.70662324679
 30
0.0
  0
SPLINE
  5
146
330
2
100
AcDbEntity
  8
0
  6
Continuous
 62
     7
100
AcDbSpline
210
0.0
220
0.0
230
1.0
 70
     8
 71
     3
 72
     9
 73
     5
 74
     0
 42
0.0000000001
 43
0.0000000001
 40
0.0
 40
0.0
 40
0.0
 40
0.0
 40
0.4967581559000001
 40
1.0
 40
1.0
 40
1.0
 40
1.0
 10
7418.540441504607
 20
-5868.41992652729
 30
0.0
 10
7418.483847381207
 20
-5867.973414082289
 30
0.0
 10
7418.424662964508
 20
-5867.06682478489
 30
0.0
 10
7418.473515435606
 20
-5866.15978313719
 30
0.0
 10
7418.523962766506
 20
-5865.70662324679
 30
0.0
  0
SPLINE
  5
147
330
2
100
AcDbEntity
  8
0
  6
Continuous
 62
     7
100
AcDbSpline
210
0.0
220
0.0
230
1.0
 70
     8
 71
     3
 72
     9
 73
     5
 74
     0
 42
0.0000000001
 43
0.0000000001
 40
0.0
 40
0.0
 40
0.0
 40
0.0
 40
0.2333160119
 40
1.0
 40
1.0
 40
1.0
 40
1.0
 10
7426.541478147408
 20
-5879.11793688859
 30
0.0
 10
7426.434787102107
 20
-5879.02674795499
 30
0.0
 10
7425.981699145808
 20
-5878.63101626489
 30
0.0
 10
7425.545999417806
 20
-5878.215489170691
 30
0.0
 10
7425.221234916107
 20
-5877.888026908388
 30
0.0
  0
SPLINE
  5
148
330
2
100
AcDbEntity
  8
0
  6
Continuous
 62
     7
100
AcDbSpline
210
0.0
220
0.0
230
1.0
 70
     8
 71
     3
 72
     9
 73
     5
 74
     0
 42
0.0000000001
 43
0.0000000001
 40
0.0
 40
0.0
 40
0.0
 40
0.0
 40
0.2455557949
 40
1.0
 40
1.0
 40
1.0
 40
1.0
 10
7420.553976012408
 20
-5872.075223933389
 30
0.0
 10
7420.412573143607
 20
-5871.87141441039
 30
0.0
 10
7419.840446521708
 20
-5871.038840062691
 30
0.0
 10
7419.281782516008
 20
-5870.19706148029
 30
0.0
 10
7418.865875673708
 20
-5869.55841473339
 30
0.0
  0
SPLINE
  5
149
330
2
100
AcDbEntity
  8
0
  6
Continuous
 62
     7
100
AcDbSpline
210
0.0
220
0.0
230
1.0
 70
     8
 71
     3
 72
     9
 73
     5
 74
     0
 42
0.0000000001
 43
0.0000000001
 40
0.0
 40
0.0
 40
0.0
 40
0.0
 40
0.2463542244
 40
1.0
 40
1.0
 40
1.0
 40
1.0
 10
7444.741508579807
 20
-5878.369118965289
 30
0.0
 10
7444.515615930008
 20
-5878.460997191392
 30
0.0
 10
7443.594730373408
 20
-5878.824111938588
 30
0.0
 10
7442.656897025408
 20
-5879.14480488859
 30
0.0
 10
7441.941945682308
 20
-5879.357869948891
 30
0.0
  0
SPLINE
  5
14A
330
2
100
AcDbEntity
  8
0
  6
Continuous
 62
     7
100
AcDbSpline
210
0.0
220
0.0
230
1.0
 70
     8
 71
     3
 72
     9
 73
     5
 74
     0
 42
0.0000000001
 43
0.0000000001
 40
0.0
 40
0.0
 40
0.0
 40
0.0
 40
0.2511586193
 40
1.0
 40
1.0
 40
1.0
 40
1.0
 10
7432.684540923507
 20
-5880.42929737949
 30
0.0
 10
7432.418477499408
 20
-5880.416037498388
 30
0.0
 10
7431.359778421906
 20
-5880.350493720491
 30
0.0
 10
7430.304256532507
 20
-5880.23733253509
 30
0.0
 10
7429.517120918608
 20
-5880.13114914329
 30
0.0
  0
SPLINE
  5
14B
330
2
100
AcDbEntity
  8
0
  6
Continuous
 62
     7
100
AcDbSpline
210
0.0
220
0.0
230
1.0
 70
     8
 71
     3
 72
     9
 73
     5
 74
     0
 42
0.0000000001
 43
0.0000000001
 40
0.0
 40
0.0
 40
0.0
 40
0.0
 40
0.2521256752
 40
1.0
 40
1.0
 40
1.0
 40
1.0
 10
7455.249457800409
 20
-5865.347475606291
 30
0.0
 10
7455.147313593207
 20
-5865.590966007591
 30
0.0
 10
7454.736246928607
 20
-5866.554194733989
 30
0.0
 10
7454.299406479306
 20
-5867.506591726689
 30
0.0
 10
7453.954066687808
 20
-5868.20958617989
 30
0.0
  0
SPLINE
  5
14C
330
2
100
AcDbEntity
  8
0
  6
Continuous
 62
     7
100
AcDbSpline
210
0.0
220
0.0
230
1.0
 70
     8
 71
     3
 72
     9
 73
     5
 74
     0
 42
0.0000000001
 43
0.0000000001
 40
0.0
 40
0.0
 40
0.0
 40
0.0
 40
0.2455557977
 40
1.0
 40
1.0
 40
1.0
 40
1.0
 10
7453.219445318108
 20
-5858.97887602819
 30
0.0
 10
7453.360848122708
 20
-5859.182685465191
 30
0.0
 10
7453.932974480607
 20
-5860.015259449792
 30
0.0
 10
7454.491638236207
 20
-5860.857037659391
 30
0.0
 10
7454.907544893207
 20
-5861.495684119589
 30
0.0
  0
SPLINE
  5
14D
330
2
100
AcDbEntity
  8
0
  6
Continuous
 62
     7
100
AcDbSpline
210
0.0
220
0.0
230
1.0
 70
     8
 71
     3
 72
     9
 73
     5
 74
     0
 42
0.0000000001
 43
0.0000000001
 40
0.0
 40
0.0
 40
0.0
 40
0.0
 40
0.2674489393
 40
1.0
 40
1.0
 40
1.0
 40
1.0
 10
7448.552185027008
 20
-5853.16607132529
 30
0.0
 10
7448.438894471808
 20
-5853.05183969319
 30
0.0
 10
7448.011171228706
 20
-5852.628848749489
 30
0.0
 10
7447.566924809406
 20
-5852.22247172159
 30
0.0
 10
7447.231942419509
 20
-5851.93616196449
 30
0.0
  0
SPLINE
  5
14E
330
2
100
AcDbEntity
  8
0
  6
Continuous
 62
     7
100
AcDbSpline
210
0.0
220
0.0
230
1.0
 70
     8
 71
     3
 72
    24
 73
    20
 74
     0
 42
0.0000000001
 43
0.0000000001
 40
0.0
 40
0.0
 40
0.0
 40
0.0
 40
0.0263314219
 40
0.052818003
 40
0.0796003181
 40
0.1068065292
 40
0.1628323873
 40
0.2215801603
 40
0.2832668449
 40
0.3477510927
 40
0.4145929794
 40
0.4831265176
 40
0.5525422247999999
 40
0.6219662367000001
 40
0.7571084293000001
 40
0.8217732966999998
 40
0.8838011720999999
 40
0.9431142375
 40
1.0
 40
1.0
 40
1.0
 40
1.0
 10
7424.274252674807
 20
-5869.09058040289
 30
0.0
 10
7424.195528079308
 20
-5868.809890348188
 30
0.0
 10
7424.070408533008
 20
-5868.237066402389
 30
0.0
 10
7423.983278246907
 20
-5867.358256254391
 30
0.0
 10
7423.997022926108
 20
-5866.465433549791
 30
0.0
 10
7424.150919536407
 20
-5865.255062929289
 30
0.0
 10
7424.602553778908
 20
-5863.736582685191
 30
0.0
 10
7425.520153083809
 20
-5861.999384771891
 30
0.0
 10
7426.787547974708
 20
-5860.37897604039
 30
0.0
 10
7428.364609902406
 20
-5858.924379685991
 30
0.0
 10
7430.202955093007
 20
-5857.67897490219
 30
0.0
 10
7432.246447821608
 20
-5856.68057417509
 30
0.0
 10
7434.434285887906
 20
-5855.95980025869
 30
0.0
 10
7437.422440279409
 20
-5855.40439742969
 30
0.0
 10
7440.451803185109
 20
-5855.45972931589
 30
0.0
 10
7443.272356680108
 20
-5856.17085125869
 30
0.0
 10
7445.169994871609
 20
-5856.997650445389
 30
0.0
 10
7446.818183059408
 20
-5858.10223303039
 30
0.0
 10
7447.733197280408
 20
-5859.021839845091
 30
0.0
 10
7448.126555994207
 20
-5859.51368370569
 30
0.0
  0
LINE
  5
14F
330
2
100
AcDbEntity
  8
0
  6
Continuous
 62
     7
100
AcDbLine
 10
7424.274084964108
 20
-5869.090331701889
 30
0.0
 11
7424.278721622608
 21
-5869.10648869759
 31
0.0
  0
LINE
  5
150
330
2
100
AcDbEntity
  8
0
  6
Continuous
 62
     7
100
AcDbLine
 10
7424.278721622608
 20
-5869.10648869759
 30
0.0
 11
7424.284230975607
 21
-5869.12551118899
 31
0.0
  0
SPLINE
  5
151
330
2
100
AcDbEntity
  8
0
  6
Continuous
 62
     7
100
AcDbSpline
210
0.0
220
0.0
230
1.0
 70
     8
 71
     3
 72
     9
 73
     5
 74
     0
 42
0.0000000001
 43
0.0000000001
 40
0.0
 40
0.0
 40
0.0
 40
0.0
 40
0.2511586188
 40
1.0
 40
1.0
 40
1.0
 40
1.0
 10
7441.088881089206
 20
-5850.624801558989
 30
0.0
 10
7441.354944391207
 20
-5850.63806144459
 30
0.0
 10
7442.413642984607
 20
-5850.703605227788
 30
0.0
 10
7443.469164391706
 20
-5850.816766369991
 30
0.0
 10
7444.256299648309
 20
-5850.92294970979
 30
0.0
  0
SPLINE
  5
152
330
2
100
AcDbEntity
  8
0
  6
Continuous
 62
     7
100
AcDbSpline
210
0.0
220
0.0
230
1.0
 70
     8
 71
     3
 72
     9
 73
     5
 74
     0
 42
0.0000000001
 43
0.0000000001
 40
0.0
 40
0.0
 40
0.0
 40
0.0
 40
0.2544863296
 40
1.0
 40
1.0
 40
1.0
 40
1.0
 10
7444.256299648309
 20
-5850.92294970979
 30
0.0
 10
7444.515383616407
 20
-5850.986839387591
 30
0.0
 10
7445.528019228008
 20
-5851.25920925159
 30
0.0
 10
7446.517766610607
 20
-5851.618298072088
 30
0.0
 10
7447.231942419509
 20
-5851.93616196449
 30
0.0
  0
SPLINE
  5
153
330
2
100
AcDbEntity
  8
0
  6
Continuous
 62
     7
100
AcDbSpline
210
0.0
220
0.0
230
1.0
 70
     8
 71
     3
 72
    21
 73
    17
 74
     0
 42
0.0000000001
 43
0.0000000001
 40
0.0
 40
0.0
 40
0.0
 40
0.0
 40
0.0532974222
 40
0.1073345398
 40
0.1627427996
 40
0.2199966911
 40
0.2793772514
 40
0.3409644814
 40
0.4046506458
 40
0.4701658563000001
 40
0.6047634831000001
 40
0.6730108414
 40
0.7410434611
 40
0.8082814868000001
 40
0.8741865348999999
 40
1.0
 40
1.0
 40
1.0
 40
1.0
 10
7449.345087878208
 20
-5861.424503165991
 30
0.0
 10
7449.206753857308
 20
-5860.94891580099
 30
0.0
 10
7448.837302728907
 20
-5860.01504424499
 30
0.0
 10
7448.027764234307
 20
-5858.72822394999
 30
0.0
 10
7446.979657577307
 20
-5857.57695205219
 30
0.0
 10
7445.716857965907
 20
-5856.585245750189
 30
0.0
 10
7444.266833985207
 20
-5855.77227769599
 30
0.0
 10
7442.660465802707
 20
-5855.153553487589
 30
0.0
 10
7440.930939764609
 20
-5854.74059524829
 30
0.0
 10
7438.489299420908
 20
-5854.472025047591
 30
0.0
 10
7435.975111337107
 20
-5854.64563094569
 30
0.0
 10
7433.523439984607
 20
-5855.23250311949
 30
0.0
 10
7431.740346769308
 20
-5855.875297657092
 30
0.0
 10
7430.060062550907
 20
-5856.70525309569
 30
0.0
 10
7428.037406290608
 20
-5858.01454959569
 30
0.0
 10
7426.718806250507
 20
-5859.25123927689
 30
0.0
 10
7425.988213883307
 20
-5860.16406596879
 30
0.0
  0
SPLINE
  5
154
330
2
100
AcDbEntity
  8
0
  6
Continuous
 62
     7
100
AcDbSpline
210
0.0
220
0.0
230
1.0
 70
     8
 71
     3
 72
     9
 73
     5
 74
     0
 42
0.0000000001
 43
0.0000000001
 40
0.0
 40
0.0
 40
0.0
 40
0.0
 40
0.5084969999000001
 40
1.0
 40
1.0
 40
1.0
 40
1.0
 10
7425.988213883307
 20
-5860.16406596879
 30
0.0
 10
7425.697461737907
 20
-5860.527341484491
 30
0.0
 10
7425.165961786309
 20
-5861.27518011979
 30
0.0
 10
7424.730891321307
 20
-5862.08346469289
 30
0.0
 10
7424.544887497908
 20
-5862.492950984488
 30
0.0
  0
LINE
  5
155
330
2
100
AcDbEntity
  8
0
  6
Continuous
 62
     7
100
AcDbLine
 10
7449.345153370507
 20
-5861.42438724959
 30
0.0
 11
7449.352601017207
 21
-5861.450608344892
 31
0.0
  0
LINE
  5
156
330
2
100
AcDbEntity
  8
0
  6
Continuous
 62
     7
100
AcDbLine
 10
7449.352601017207
 20
-5861.450608344892
 30
0.0
 11
7449.355234746007
 21
-5861.45996356959
 31
0.0
  0
SPLINE
  5
157
330
2
100
AcDbEntity
  8
0
  6
Continuous
 62
     7
100
AcDbSpline
210
0.0
220
0.0
230
1.0
 70
     8
 71
     3
 72
     9
 73
     5
 74
     0
 42
0.0000000001
 43
0.0000000001
 40
0.0
 40
0.0
 40
0.0
 40
0.0
 40
0.4939246878000001
 40
1.0
 40
1.0
 40
1.0
 40
1.0
 10
7449.551888848309
 20
-5862.354928182192
 30
0.0
 10
7449.638639613809
 20
-5862.895956230889
 30
0.0
 10
7449.701580058409
 20
-5864.01208841169
 30
0.0
 10
7449.544059311708
 20
-5865.117819411789
 30
0.0
 10
7449.414819063907
 20
-5865.66415946439
 30
0.0
  0
SPLINE
  5
158
330
2
100
AcDbEntity
  8
0
  6
Continuous
 62
     7
100
AcDbSpline
210
0.0
220
0.0
230
1.0
 70
     8
 71
     3
 72
    22
 73
    18
 74
     0
 42
0.0000000001
 43
0.0000000001
 40
0.0
 40
0.0
 40
0.0
 40
0.0
 40
0.0526921901
 40
0.1067643299
 40
0.1628988869
 40
0.2215070132
 40
0.2827155023999999
 40
0.3463905599
 40
0.4121814765
 40
0.4795718614
 40
0.5479322471
 40
0.6165717261000001
 40
0.7516532548
 40
0.8171165901999998
 40
0.8804694343999999
 40
0.9414460127999999
 40
1.0
 40
1.0
 40
1.0
 40
1.0
 10
7424.275222211907
 20
-5869.09111451209
 30
0.0
 10
7424.183702570108
 20
-5868.55650490689
 30
0.0
 10
7424.114011356009
 20
-5867.45026429979
 30
0.0
 10
7424.352046383008
 20
-5865.779954229391
 30
0.0
 10
7424.921545125508
 20
-5864.127835185191
 30
0.0
 10
7425.804837756107
 20
-5862.537068960389
 30
0.0
 10
7426.977179943708
 20
-5861.046785039391
 30
0.0
 10
7428.407711608507
 20
-5859.69350743889
 30
0.0
 10
7430.059950729007
 20
-5858.51021825599
 30
0.0
 10
7431.892200955108
 20
-5857.52583989059
 30
0.0
 10
7433.859525154007
 20
-5856.76435996489
 30
0.0
 10
7436.579011322807
 20
-5856.075424885791
 30
0.0
 10
7439.378157837707
 20
-5855.885584063989
 30
0.0
 10
7442.078974018807
 20
-5856.231639657789
 30
0.0
 10
7443.971320950605
 20
-5856.744500275389
 30
0.0
 10
7445.702508338406
 20
-5857.501308062492
 30
0.0
 10
7446.742677262808
 20
-5858.17117776289
 30
0.0
 10
7447.218677079007
 20
-5858.54090957439
 30
0.0
  0
SPLINE
  5
159
330
2
100
AcDbEntity
  8
0
  6
Continuous
 62
     7
100
AcDbSpline
210
0.0
220
0.0
230
1.0
 70
     8
 71
     3
 72
    11
 73
     7
 74
     0
 42
0.0000000001
 43
0.0000000001
 40
0.0
 40
0.0
 40
0.0
 40
0.0
 40
0.261502692
 40
0.5129651633
 40
0.7577070716
 40
1.0
 40
1.0
 40
1.0
 40
1.0
 10
7424.544887497908
 20
-5862.492950984488
 30
0.0
 10
7424.294757915207
 20
-5863.03039119369
 30
0.0
 10
7423.895273105507
 20
-5864.130866772989
 30
0.0
 10
7423.631740510808
 20
-5865.839755404589
 30
0.0
 10
7423.725351143108
 20
-5867.523542446889
 30
0.0
 10
7424.025581590608
 20
-5868.596618045691
 30
0.0
 10
7424.229600624707
 20
-5869.10657021519
 30
0.0
  0
SPLINE
  5
15A
330
2
100
AcDbEntity
  8
0
  6
Continuous
 62
     7
100
AcDbSpline
210
0.0
220
0.0
230
1.0
 70
     8
 71
     3
 72
    22
 73
    18
 74
     0
 42
0.0000000001
 43
0.0000000001
 40
0.0
 40
0.0
 40
0.0
 40
0.0
 40
0.0527432458
 40
0.1068855235
 40
0.1631229284
 40
0.2218709038
 40
0.2832506414
 40
0.3471148971
 40
0.4130941982
 40
0.4806506891
 40
0.5491332121000001
 40
0.6178312811
 40
0.7527772616
 40
0.8180460762
 40
0.8811285860999998
 40
0.9417829255999999
 40
1.0
 40
1.0
 40
1.0
 40
1.0
 10
7424.243391975108
 20
-5869.140803889189
 30
0.0
 10
7424.450255276608
 20
-5869.65076115229
 30
0.0
 10
7424.982921829907
 20
-5870.64172044119
 30
0.0
 10
7426.086358789508
 20
-5871.95170290829
 30
0.0
 10
7427.468194832709
 20
-5873.065506105689
 30
0.0
 10
7429.089031109808
 20
-5873.95495868709
 30
0.0
 10
7430.905456753707
 20
-5874.59939006009
 30
0.0
 10
7432.870104298307
 20
-5874.983841135891
 30
0.0
 10
7434.932613843308
 20
-5875.099625491191
 30
0.0
 10
7437.040300408006
 20
-5874.944571789491
 30
0.0
 10
7439.140420232208
 20
-5874.522680796489
 30
0.0
 10
7441.839587556407
 20
-5873.62603157879
 30
0.0
 10
7444.329235238507
 20
-5872.25526136569
 30
0.0
 10
7446.431969903007
 20
-5870.47670010579
 30
0.0
 10
7447.749980218407
 20
-5868.99989538719
 30
0.0
 10
7448.790761709108
 20
-5867.403428902489
 30
0.0
 10
7449.292266310208
 20
-5866.261154724591
 30
0.0
 10
7449.485181124209
 20
-5865.685172528589
 30
0.0
  0
SPLINE
  5
15B
330
2
100
AcDbEntity
  8
0
  6
Continuous
 62
     7
100
AcDbSpline
210
0.0
220
0.0
230
1.0
 70
     8
 71
     3
 72
     9
 73
     5
 74
     0
 42
0.0000000001
 43
0.0000000001
 40
0.0
 40
0.0
 40
0.0
 40
0.0
 40
0.5033650421
 40
1.0
 40
1.0
 40
1.0
 40
1.0
 10
7448.146643529108
 20
-5859.538896101589
 30
0.0
 10
7448.379384210608
 20
-5859.832128080291
 30
0.0
 10
7448.804655589608
 20
-5860.445239309091
 30
0.0
 10
7449.143756938707
 20
-5861.11010633849
 30
0.0
 10
7449.288454904608
 20
-5861.44994898099
 30
0.0
  0
SPLINE
  5
15C
330
2
100
AcDbEntity
  8
0
  6
Continuous
 62
     7
100
AcDbSpline
210
0.0
220
0.0
230
1.0
 70
     8
 71
     3
 72
     9
 73
     5
 74
     0
 42
0.0000000001
 43
0.0000000001
 40
0.0
 40
0.0
 40
0.0
 40
0.0
 40
0.5032418440999999
 40
1.0
 40
1.0
 40
1.0
 40
1.0
 10
7455.249457800409
 20
-5865.347475606291
 30
0.0
 10
7455.299905131308
 20
-5864.89431571589
 30
0.0
 10
7455.348757602407
 20
-5863.987274068089
 30
0.0
 10
7455.289573185708
 20
-5863.08068477079
 30
0.0
 10
7455.232979062308
 20
-5862.63417232569
 30
0.0
  0
SPLINE
  5
15D
330
2
100
AcDbEntity
  8
0
  6
Continuous
 62
     7
100
AcDbSpline
210
0.0
220
0.0
230
1.0
 70
     8
 71
     3
 72
     9
 73
     5
 74
     0
 42
0.0000000001
 43
0.0000000001
 40
0.0
 40
0.0
 40
0.0
 40
0.0
 40
0.2456878064
 40
1.0
 40
1.0
 40
1.0
 40
1.0
 10
7426.541478147408
 20
-5879.11793688859
 30
0.0
 10
7426.776842457709
 20
-5879.222692349191
 30
0.0
 10
7427.744685628407
 20
-5879.62669376089
 30
0.0
 10
7428.749167827908
 20
-5879.94177318199
 30
0.0
 10
7429.517120918608
 20
-5880.13114914329
 30
0.0
  0
SPLINE
  5
15E
330
2
100
AcDbEntity
  8
0
  6
Continuous
 62
     7
100
AcDbSpline
210
0.0
220
0.0
230
1.0
 70
     8
 71
     3
 72
    11
 73
     7
 74
     0
 42
0.0000000001
 43
0.0000000001
 40
0.0
 40
0.0
 40
0.0
 40
0.0
 40
0.2576756348
 40
0.5069621489000001
 40
0.7525911031999999
 40
1.0
 40
1.0
 40
1.0
 40
1.0
 10
7449.485181124209
 20
-5865.685172528589
 30
0.0
 10
7449.699609175207
 20
-5865.04495865819
 30
0.0
 10
7449.995414948507
 20
-5863.737676614089
 30
0.0
 10
7449.992421559608
 20
-5861.748659865191
 30
0.0
 10
7449.532328571208
 20
-5859.84053209269
 30
0.0
 10
7448.936500743707
 20
-5858.67885336889
 30
0.0
 10
7448.577958730007
 20
-5858.138761916292
 30
0.0
  0
SPLINE
  5
15F
330
2
100
AcDbEntity
  8
0
  6
Continuous
 62
     7
100
AcDbSpline
210
0.0
220
0.0
230
1.0
 70
     8
 71
     3
 72
    19
 73
    15
 74
     0
 42
0.0000000001
 43
0.0000000001
 40
0.0
 40
0.0
 40
0.0
 40
0.0
 40
0.0575412209
 40
0.1144079931
 40
0.1709538615
 40
0.2275806434
 40
0.2846653956
 40
0.3425593571
 40
0.4015654957
 40
0.4619256995
 40
0.5871641335
 40
0.7190255211
 40
0.8570515740999999
 40
1.0
 40
1.0
 40
1.0
 40
1.0
 10
7424.488029159007
 20
-5870.469329970591
 30
0.0
 10
7424.274687981408
 20
-5870.181093394791
 30
0.0
 10
7423.885452834205
 20
-5869.58105011089
 30
0.0
 10
7423.423210844609
 20
-5868.61800772769
 30
0.0
 10
7423.091388827507
 20
-5867.608409379391
 30
0.0
 10
7422.893026893408
 20
-5866.563050802291
 30
0.0
 10
7422.829722205708
 20
-5865.492579831392
 30
0.0
 10
7422.901485718708
 20
-5864.40794642889
 30
0.0
 10
7423.107009238809
 20
-5863.319859319489
 30
0.0
 10
7423.560978587407
 20
-5861.861636553989
 30
0.0
 10
7424.460334194508
 20
-5860.08174581649
 30
0.0
 10
7425.985616758308
 20
-5858.131227959489
 30
0.0
 10
7427.908782384408
 20
-5856.404560944088
 30
0.0
 10
7429.389489554508
 20
-5855.454373211591
 30
0.0
 10
7430.173065985808
 20
-5855.030523334189
 30
0.0
  0
SPLINE
  5
160
330
2
100
AcDbEntity
  8
0
  6
Continuous
 62
     7
100
AcDbSpline
210
0.0
220
0.0
230
1.0
 70
     8
 71
     3
 72
     9
 73
     5
 74
     0
 42
0.0000000001
 43
0.0000000001
 40
0.0
 40
0.0
 40
0.0
 40
0.0
 40
0.23331602
 40
1.0
 40
1.0
 40
1.0
 40
1.0
 10
7418.540441504607
 20
-5868.41992652729
 30
0.0
 10
7418.647132501108
 20
-5868.51111542029
 30
0.0
 10
7419.100220236606
 20
-5868.90684691769
 30
0.0
 10
7419.535919761209
 20
-5869.322373799491
 30
0.0
 10
7419.860684112108
 20
-5869.64983588809
 30
0.0
  0
SPLINE
  5
161
330
2
100
AcDbEntity
  8
0
  6
Continuous
 62
     7
100
AcDbSpline
210
0.0
220
0.0
230
1.0
 70
     8
 71
     3
 72
     9
 73
     5
 74
     0
 42
0.0000000001
 43
0.0000000001
 40
0.0
 40
0.0
 40
0.0
 40
0.0
 40
0.2482966442
 40
1.0
 40
1.0
 40
1.0
 40
1.0
 10
7448.985786284007
 20
-5860.800474563689
 30
0.0
 10
7448.927113437907
 20
-5860.68954848699
 30
0.0
 10
7448.680540241207
 20
-5860.24829397999
 30
0.0
 10
7448.393501209207
 20
-5859.829777275892
 30
0.0
 10
7448.158539270408
 20
-5859.531245392791
 30
0.0
  0
SPLINE
  5
162
330
2
100
AcDbEntity
  8
0
  6
Continuous
 62
     7
100
AcDbSpline
210
0.0
220
0.0
230
1.0
 70
     8
 71
     3
 72
     9
 73
     5
 74
     0
 42
0.0000000001
 43
0.0000000001
 40
0.0
 40
0.0
 40
0.0
 40
0.0
 40
0.2539692145
 40
1.0
 40
1.0
 40
1.0
 40
1.0
 10
7426.216043978307
 20
-5877.979448682491
 30
0.0
 10
7426.076037307407
 20
-5877.764461104789
 30
0.0
 10
7425.522247937307
 20
-5876.919597691489
 30
0.0
 10
7424.957543625807
 20
-5876.08183888709
 30
0.0
 10
7424.527944403208
 20
-5875.462640591091
 30
0.0
  0
SPLINE
  5
163
330
2
100
AcDbEntity
  8
0
  6
Continuous
 62
     7
100
AcDbSpline
210
0.0
220
0.0
230
1.0
 70
     8
 71
     3
 72
     9
 73
     5
 74
     0
 42
0.0000000001
 43
0.0000000001
 40
0.0
 40
0.0
 40
0.0
 40
0.0
 40
0.2544863296
 40
1.0
 40
1.0
 40
1.0
 40
1.0
 10
7429.191686749509
 20
-5878.992660937091
 30
0.0
 10
7428.932602781408
 20
-5878.928771259389
 30
0.0
 10
7427.919967169808
 20
-5878.656401395289
 30
0.0
 10
7426.930219787208
 20
-5878.29731257479
 30
0.0
 10
7426.216043978307
 20
-5877.979448682491
 30
0.0
  0
SPLINE
  5
164
330
2
100
AcDbEntity
  8
0
  6
Continuous
 62
     7
100
AcDbSpline
210
0.0
220
0.0
230
1.0
 70
     8
 71
     3
 72
     9
 73
     5
 74
     0
 42
0.0000000001
 43
0.0000000001
 40
0.0
 40
0.0
 40
0.0
 40
0.0
 40
0.2511586189
 40
1.0
 40
1.0
 40
1.0
 40
1.0
 10
7441.248655851608
 20
-5876.93248260839
 30
0.0
 10
7441.514719153707
 20
-5876.945742493989
 30
0.0
 10
7442.57341774711
 20
-5877.011286277189
 30
0.0
 10
7443.628939154208
 20
-5877.12444741939
 30
0.0
 10
7444.416074410708
 20
-5877.230630759189
 30
0.0
  0
SPLINE
  5
165
330
2
100
AcDbEntity
  8
0
  6
Continuous
 62
     7
100
AcDbSpline
210
0.0
220
0.0
230
1.0
 70
     8
 71
     3
 72
     9
 73
     5
 74
     0
 42
0.0000000001
 43
0.0000000001
 40
0.0
 40
0.0
 40
0.0
 40
0.0
 40
0.5089020821
 40
1.0
 40
1.0
 40
1.0
 40
1.0
 10
7425.968560001507
 20
-5860.14037290949
 30
0.0
 10
7425.655566928607
 20
-5860.49050888469
 30
0.0
 10
7425.079019224208
 20
-5861.214167995889
 30
0.0
 10
7424.595349499407
 20
-5862.003450111188
 30
0.0
 10
7424.384815196707
 20
-5862.404788328291
 30
0.0
  0
SPLINE
  5
166
330
2
100
AcDbEntity
  8
0
  6
Continuous
 62
     7
100
AcDbSpline
210
0.0
220
0.0
230
1.0
 70
     8
 71
     3
 72
    15
 73
    11
 74
     0
 42
0.0000000001
 43
0.0000000001
 40
0.0
 40
0.0
 40
0.0
 40
0.0
 40
0.1336192532
 40
0.2633952635
 40
0.3898318937
 40
0.5136173879000001
 40
0.6355816960000002
 40
0.7566471528000001
 40
0.8778151806
 40
1.0
 40
1.0
 40
1.0
 40
1.0
 10
7424.384815196707
 20
-5862.404788328291
 30
0.0
 10
7424.209982160608
 20
-5862.73806978449
 30
0.0
 10
7423.901462483707
 20
-5863.414899131491
 30
0.0
 10
7423.566927063209
 20
-5864.46344763569
 30
0.0
 10
7423.370751743506
 20
-5865.518623942589
 30
0.0
 10
7423.314729288008
 20
-5866.568519710289
 30
0.0
 10
7423.399055617108
 20
-5867.60145212949
 30
0.0
 10
7423.622231390107
 20
-5868.606046532989
 30
0.0
 10
7423.981211438007
 20
-5869.570927882492
 30
0.0
 10
7424.306028745407
 20
-5870.17724423229
 30
0.0
 10
7424.488029159007
 20
-5870.469329970591
 30
0.0
  0
SPLINE
  5
167
330
2
100
AcDbEntity
  8
0
  6
Continuous
 62
     7
100
AcDbSpline
210
0.0
220
0.0
230
1.0
 70
     8
 71
     3
 72
    11
 73
     7
 74
     0
 42
0.0000000001
 43
0.0000000001
 40
0.0
 40
0.0
 40
0.0
 40
0.0
 40
0.247649716
 40
0.4931679842000002
 40
0.7422865766
 40
1.0
 40
1.0
 40
1.0
 40
1.0
 10
7448.577958730007
 20
-5858.138761916292
 30
0.0
 10
7448.947491724708
 20
-5858.67591066259
 30
0.0
 10
7449.563525675507
 20
-5859.83504968289
 30
0.0
 10
7450.044519109308
 20
-5861.748313745289
 30
0.0
 10
7450.057336998408
 20
-5863.746780505289
 30
0.0
 10
7449.761365647008
 20
-5865.060592875991
 30
0.0
 10
7449.545640905409
 20
-5865.703862897788
 30
0.0
  0
SPLINE
  5
168
330
2
100
AcDbEntity
  8
0
  6
Continuous
 62
     7
100
AcDbSpline
210
0.0
220
0.0
230
1.0
 70
     8
 71
     3
 72
    20
 73
    16
 74
     0
 42
0.0000000001
 43
0.0000000001
 40
0.0
 40
0.0
 40
0.0
 40
0.0
 40
0.0564481493
 40
0.1150327403
 40
0.1757853112
 40
0.2385743898
 40
0.3688586342
 40
0.502801933
 40
0.5699495497
 40
0.6364414255
 40
0.7653319437999999
 40
0.8271896761
 40
0.8869300967
 40
0.9444963681
 40
1.0
 40
1.0
 40
1.0
 40
1.0
 10
7449.545640905409
 20
-5865.703862897788
 30
0.0
 10
7449.375455056608
 20
-5866.211340407691
 30
0.0
 10
7448.944767605109
 20
-5867.218978038589
 30
0.0
 10
7448.069506347607
 20
-5868.64361529129
 30
0.0
 10
7446.970879507006
 20
-5869.98277103429
 30
0.0
 10
7445.217133258907
 20
-5871.63900417099
 30
0.0
 10
7442.593290856208
 20
-5873.34542427189
 30
0.0
 10
7439.628174172007
 20
-5874.45872576209
 30
0.0
 10
7437.136893192406
 20
-5874.96298660499
 30
0.0
 10
7434.654547190007
 20
-5875.190896181289
 30
0.0
 10
7432.195378931408
 20
-5875.011133254091
 30
0.0
 10
7429.894065654507
 20
-5874.402346748791
 30
0.0
 10
7428.317424041208
 20
-5873.75492609739
 30
0.0
 10
7426.899450226407
 20
-5872.92282001119
 30
0.0
 10
7426.063629191206
 20
-5872.24285494329
 30
0.0
 10
7425.684296444607
 20
-5871.878031796989
 30
0.0
  0
SPLINE
  5
169
330
2
100
AcDbEntity
  8
0
  6
Continuous
 62
     7
100
AcDbSpline
210
0.0
220
0.0
230
1.0
 70
     8
 71
     3
 72
     9
 73
     5
 74
     0
 42
0.0000000001
 43
0.0000000001
 40
0.0
 40
0.0
 40
0.0
 40
0.0
 40
0.2534970045
 40
1.0
 40
1.0
 40
1.0
 40
1.0
 10
7425.684296444607
 20
-5871.878031796989
 30
0.0
 10
7425.571630473507
 20
-5871.769675335791
 30
0.0
 10
7425.137791154408
 20
-5871.33137431409
 30
0.0
 10
7424.747829343008
 20
-5870.849331381791
 30
0.0
 10
7424.488029159007
 20
-5870.469329970591
 30
0.0
  0
SPLINE
  5
16A
330
2
100
AcDbEntity
  8
0
  6
Continuous
 62
     7
100
AcDbSpline
210
0.0
220
0.0
230
1.0
 70
     8
 71
     3
 72
     9
 73
     5
 74
     0
 42
0.0000000001
 43
0.0000000001
 40
0.0
 40
0.0
 40
0.0
 40
0.0
 40
0.4921771098
 40
1.0
 40
1.0
 40
1.0
 40
1.0
 10
7448.670628944106
 20
-5872.66843042749
 30
0.0
 10
7447.619528260208
 20
-5873.610442912789
 30
0.0
 10
7445.265572663308
 20
-5875.289774290091
 30
0.0
 10
7442.628784150307
 20
-5876.467596562592
 30
0.0
 10
7441.248655851608
 20
-5876.93248260839
 30
0.0
  0
SPLINE
  5
16B
330
2
100
AcDbEntity
  8
0
  6
Continuous
 62
     7
100
AcDbSpline
210
0.0
220
0.0
230
1.0
 70
     8
 71
     3
 72
     9
 73
     5
 74
     0
 42
0.0000000001
 43
0.0000000001
 40
0.0
 40
0.0
 40
0.0
 40
0.0
 40
0.2463542262
 40
1.0
 40
1.0
 40
1.0
 40
1.0
 10
7429.191686749509
 20
-5878.992660937091
 30
0.0
 10
7429.417579297407
 20
-5878.900782753989
 30
0.0
 10
7430.338464430509
 20
-5878.537668174391
 30
0.0
 10
7431.276297338206
 20
-5878.21697535119
 30
0.0
 10
7431.991248341107
 20
-5878.00391035749
 30
0.0
  0
SPLINE
  5
16C
330
2
100
AcDbEntity
  8
0
  6
Continuous
 62
     7
100
AcDbSpline
210
0.0
220
0.0
230
1.0
 70
     8
 71
     3
 72
    24
 73
    20
 74
     0
 42
0.0000000001
 43
0.0000000001
 40
0.0
 40
0.0
 40
0.0
 40
0.0
 40
0.0568683755
 40
0.1161646086
 40
0.1781816295
 40
0.2428451956
 40
0.3780114732
 40
0.4474573624
 40
0.5168954301
 40
0.5854474862
 40
0.6523000824000002
 40
0.7167848433000002
 40
0.7784617307
 40
0.8371922801999998
 40
0.8931991970999998
 40
0.9203982434
 40
0.9471764289999999
 40
0.9736631328000001
 40
1.0
 40
1.0
 40
1.0
 40
1.0
 10
7448.136477894507
 20
-5859.50333297929
 30
0.0
 10
7447.744255317608
 20
-5859.009168393988
 30
0.0
 10
7446.830612323807
 20
-5858.084856561791
 30
0.0
 10
7445.182228009108
 20
-5856.973980580289
 30
0.0
 10
7443.282505385508
 20
-5856.14190615569
 30
0.0
 10
7440.456934552607
 20
-5855.42532184129
 30
0.0
 10
7437.420590098807
 20
-5855.367680484089
 30
0.0
 10
7434.425365233908
 20
-5855.923663591089
 30
0.0
 10
7432.232370468408
 20
-5856.646332523792
 30
0.0
 10
7430.184522742408
 20
-5857.64790119639
 30
0.0
 10
7428.343038659106
 20
-5858.89750898119
 30
0.0
 10
7426.764417648406
 20
-5860.357044240191
 30
0.0
 10
7425.497328027107
 20
-5861.982787973289
 30
0.0
 10
7424.582101122607
 20
-5863.72533123639
 30
0.0
 10
7424.134324477607
 20
-5865.247953850889
 30
0.0
 10
7423.984608553208
 20
-5866.46106298219
 30
0.0
 10
7423.974464167708
 20
-5867.35566645869
 30
0.0
 10
7424.065684595307
 20
-5868.23592163199
 30
0.0
 10
7424.193803950408
 20
-5868.809394106889
 30
0.0
 10
7424.274084964108
 20
-5869.090331701889
 30
0.0
  0
SPLINE
  5
16D
330
2
100
AcDbEntity
  8
0
  6
Continuous
 62
     7
100
AcDbSpline
210
0.0
220
0.0
230
1.0
 70
     8
 71
     3
 72
    15
 73
    11
 74
     0
 42
0.0000000001
 43
0.0000000001
 40
0.0
 40
0.0
 40
0.0
 40
0.0
 40
0.1194289494
 40
0.2443471856
 40
0.3731088199
 40
0.503591845
 40
0.6334998995000002
 40
0.7606379444
 40
0.8831911640000001
 40
1.0
 40
1.0
 40
1.0
 40
1.0
 10
7425.968560001507
 20
-5860.14037290949
 30
0.0
 10
7426.486781126607
 20
-5859.491239174989
 30
0.0
 10
7427.684906529707
 20
-5858.269025817889
 30
0.0
 10
7429.812894476107
 20
-5856.763105969291
 30
0.0
 10
7432.230132301407
 20
-5855.59695342649
 30
0.0
 10
7434.834876295707
 20
-5854.820920801691
 30
0.0
 10
7437.518628747509
 20
-5854.468297765589
 30
0.0
 10
7440.169982130507
 20
-5854.556287673588
 30
0.0
 10
7442.677274213507
 20
-5855.083405612488
 30
0.0
 10
7444.224248555807
 20
-5855.734124962289
 30
0.0
 10
7444.934454341207
 20
-5856.128580715989
 30
0.0
  0
LINE
  5
16E
330
2
100
AcDbEntity
  8
0
  6
Continuous
 62
     7
100
AcDbLine
 10
7444.934454341207
 20
-5856.128580715989
 30
0.0
 11
7444.952772614108
 21
-5856.138777383691
 31
0.0
  0
SPLINE
  5
16F
330
2
100
AcDbEntity
  8
0
  6
Continuous
 62
     7
100
AcDbSpline
210
0.0
220
0.0
230
1.0
 70
     8
 71
     3
 72
     9
 73
     5
 74
     0
 42
0.0000000001
 43
0.0000000001
 40
0.0
 40
0.0
 40
0.0
 40
0.0
 40
0.2534425522
 40
1.0
 40
1.0
 40
1.0
 40
1.0
 10
7444.952772614108
 20
-5856.138777383691
 30
0.0
 10
7445.069374032009
 20
-5856.203825773588
 30
0.0
 10
7445.524795688507
 20
-5856.468700836392
 30
0.0
 10
7445.960999329007
 20
-5856.766851899891
 30
0.0
 10
7446.272054509505
 20
-5857.00753917429
 30
0.0
  0
SPLINE
  5
170
330
2
100
AcDbEntity
  8
0
  6
Continuous
 62
     7
100
AcDbSpline
210
0.0
220
0.0
230
1.0
 70
     8
 71
     3
 72
     9
 73
     5
 74
     0
 42
0.0000000001
 43
0.0000000001
 40
0.0
 40
0.0
 40
0.0
 40
0.0
 40
0.252803325
 40
1.0
 40
1.0
 40
1.0
 40
1.0
 10
7446.413987257307
 20
-5857.119432641391
 30
0.0
 10
7446.503526960407
 20
-5857.191351106791
 30
0.0
 10
7446.852739218107
 20
-5857.48195916109
 30
0.0
 10
7447.181491939007
 20
-5857.797268592791
 30
0.0
 10
7447.412884419508
 20
-5858.045622909489
 30
0.0
  0
SPLINE
  5
171
330
2
100
AcDbEntity
  8
0
  6
Continuous
 62
     7
100
AcDbSpline
210
0.0
220
0.0
230
1.0
 70
     8
 71
     3
 72
     9
 73
     5
 74
     0
 42
0.0000000001
 43
0.0000000001
 40
0.0
 40
0.0
 40
0.0
 40
0.0
 40
0.5080363054000001
 40
1.0
 40
1.0
 40
1.0
 40
1.0
 10
7425.968560001507
 20
-5860.14037290949
 30
0.0
 10
7425.681360381109
 20
-5860.50804446789
 30
0.0
 10
7425.156514795705
 20
-5861.264517204991
 30
0.0
 10
7424.728032658308
 20
-5862.07995071629
 30
0.0
 10
7424.544887497908
 20
-5862.492950984488
 30
0.0
  0
SPLINE
  5
172
330
2
100
AcDbEntity
  8
0
  6
Continuous
 62
     7
100
AcDbSpline
210
0.0
220
0.0
230
1.0
 70
     8
 71
     3
 72
    11
 73
     7
 74
     0
 42
0.0000000001
 43
0.0000000001
 40
0.0
 40
0.0
 40
0.0
 40
0.0
 40
0.2613599473
 40
0.5155134738
 40
0.7617962150000001
 40
1.0
 40
1.0
 40
1.0
 40
1.0
 10
7431.991248341107
 20
-5878.00391035749
 30
0.0
 10
7431.302062681108
 20
-5877.93170015079
 30
0.0
 10
7429.948889012708
 20
-5877.71797034269
 30
0.0
 10
7427.997088132308
 20
-5877.181741904788
 30
0.0
 10
7426.178770665107
 20
-5876.44200540769
 30
0.0
 10
7425.055678917806
 20
-5875.80958176089
 30
0.0
 10
7424.527944403208
 20
-5875.462640591091
 30
0.0
  0
SPLINE
  5
173
330
2
100
AcDbEntity
  8
0
  6
Continuous
 62
     7
100
AcDbSpline
210
0.0
220
0.0
230
1.0
 70
     8
 71
     3
 72
     9
 73
     5
 74
     0
 42
0.0000000001
 43
0.0000000001
 40
0.0
 40
0.0
 40
0.0
 40
0.0
 40
0.2521256739
 40
1.0
 40
1.0
 40
1.0
 40
1.0
 10
7447.375238443807
 20
-5875.53053973329
 30
0.0
 10
7447.477382605509
 20
-5875.28704944269
 30
0.0
 10
7447.888449086308
 20
-5874.323821147989
 30
0.0
 10
7448.325289327407
 20
-5873.37142457709
 30
0.0
 10
7448.670628944106
 20
-5872.66843042749
 30
0.0
  0
SPLINE
  5
174
330
2
100
AcDbEntity
  8
0
  6
Continuous
 62
     7
100
AcDbSpline
210
0.0
220
0.0
230
1.0
 70
     8
 71
     3
 72
    11
 73
     7
 74
     0
 42
0.0000000001
 43
0.0000000001
 40
0.0
 40
0.0
 40
0.0
 40
0.0
 40
0.244874351
 40
0.4915592735
 40
0.7425618483
 40
1.0
 40
1.0
 40
1.0
 40
1.0
 10
7419.860684112108
 20
-5869.64983588809
 30
0.0
 10
7419.677146134907
 20
-5869.116206554689
 30
0.0
 10
7419.396281342608
 20
-5868.01257408219
 30
0.0
 10
7419.250106793008
 20
-5866.30034873329
 30
0.0
 10
7419.379983299108
 20
-5864.558085844691
 30
0.0
 10
7419.645083615107
 20
-5863.411604742591
 30
0.0
 10
7419.819353266807
 20
-5862.844513940991
 30
0.0
  0
SPLINE
  5
175
330
2
100
AcDbEntity
  8
0
  6
Continuous
 62
     7
100
AcDbSpline
210
0.0
220
0.0
230
1.0
 70
     8
 71
     3
 72
     9
 73
     5
 74
     0
 42
0.0000000001
 43
0.0000000001
 40
0.0
 40
0.0
 40
0.0
 40
0.0
 40
0.4967581559000001
 40
1.0
 40
1.0
 40
1.0
 40
1.0
 10
7454.907544893207
 20
-5861.495684119589
 30
0.0
 10
7454.964139016606
 20
-5861.942196564591
 30
0.0
 10
7455.023323433308
 20
-5862.848785861991
 30
0.0
 10
7454.974470962207
 20
-5863.755827509691
 30
0.0
 10
7454.924023631306
 20
-5864.20898740019
 30
0.0
  0
SPLINE
  5
176
330
2
100
AcDbEntity
  8
0
  6
Continuous
 62
     7
100
AcDbSpline
210
0.0
220
0.0
230
1.0
 70
     8
 71
     3
 72
    11
 73
     7
 74
     0
 42
0.0000000001
 43
0.0000000001
 40
0.0
 40
0.0
 40
0.0
 40
0.0
 40
0.2613599473
 40
0.5155134739000001
 40
0.7617962150000001
 40
1.0
 40
1.0
 40
1.0
 40
1.0
 10
7441.088881089206
 20
-5850.624801558989
 30
0.0
 10
7441.778066749208
 20
-5850.697011765589
 30
0.0
 10
7443.131240417608
 20
-5850.910741573791
 30
0.0
 10
7445.083041298108
 20
-5851.44697001159
 30
0.0
 10
7446.901358765306
 20
-5852.18670650879
 30
0.0
 10
7448.024450512608
 20
-5852.819130155591
 30
0.0
 10
7448.552185027008
 20
-5853.16607132529
 30
0.0
  0
SPLINE
  5
177
330
2
100
AcDbEntity
  8
0
  6
Continuous
 62
     7
100
AcDbSpline
210
0.0
220
0.0
230
1.0
 70
     8
 71
     3
 72
     9
 73
     5
 74
     0
 42
0.0000000001
 43
0.0000000001
 40
0.0
 40
0.0
 40
0.0
 40
0.0
 40
0.4921771098
 40
1.0
 40
1.0
 40
1.0
 40
1.0
 10
7424.409500486207
 20
-5855.96028148889
 30
0.0
 10
7425.460601170107
 20
-5855.01826900349
 30
0.0
 10
7427.814556767008
 20
-5853.33893762629
 30
0.0
 10
7430.451345280008
 20
-5852.161115353792
 30
0.0
 10
7431.831473578707
 20
-5851.696229308091
 30
0.0
  0
SPLINE
  5
178
330
2
100
AcDbEntity
  8
0
  6
Continuous
 62
     7
100
AcDbSpline
210
0.0
220
0.0
230
1.0
 70
     8
 71
     3
 72
    11
 73
     7
 74
     0
 42
0.0000000001
 43
0.0000000001
 40
0.0
 40
0.0
 40
0.0
 40
0.0
 40
0.244874351
 40
0.4915592735
 40
0.7425618483
 40
1.0
 40
1.0
 40
1.0
 40
1.0
 10
7453.219445318108
 20
-5858.97887602819
 30
0.0
 10
7453.402983295408
 20
-5859.512505361589
 30
0.0
 10
7453.683848087708
 20
-5860.616137834189
 30
0.0
 10
7453.830022637308
 20
-5862.32836318309
 30
0.0
 10
7453.700146131108
 20
-5864.070626071691
 30
0.0
 10
7453.435045815108
 20
-5865.217107173791
 30
0.0
 10
7453.260776163507
 20
-5865.78419797539
 30
0.0
  0
SPLINE
  5
179
330
2
100
AcDbEntity
  8
0
  6
Continuous
 62
     7
100
AcDbSpline
210
0.0
220
0.0
230
1.0
 70
     8
 71
     3
 72
    15
 73
    11
 74
     0
 42
0.0000000001
 43
0.0000000001
 40
0.0
 40
0.0
 40
0.0
 40
0.0
 40
0.1249711818
 40
0.2499469353
 40
0.3749433403
 40
0.4999581689000001
 40
0.6249729928
 40
0.7499840290000001
 40
0.8749892049999999
 40
1.0
 40
1.0
 40
1.0
 40
1.0
 10
7460.714826437516
 20
-5821.634357980124
 30
0.0
 10
7459.802174898216
 20
-5821.552179212624
 30
0.0
 10
7457.987784335816
 20
-5821.211454837925
 30
0.0
 10
7455.418149517915
 20
-5820.188764232125
 30
0.0
 10
7453.092496942017
 20
-5818.689225072125
 30
0.0
 10
7451.101812635316
 20
-5816.766748855024
 30
0.0
 10
7449.524106251715
 20
-5814.492699132824
 30
0.0
 10
7448.423310693716
 20
-5811.952843387725
 30
0.0
 10
7447.845150064916
 20
-5809.246662959726
 30
0.0
 10
7447.825928706717
 20
-5807.398976652224
 30
0.0
 10
7447.908315821314
 20
-5806.486052255224
 30
0.0
  0
SPLINE
  5
17A
330
2
100
AcDbEntity
  8
0
  6
Continuous
 62
     7
100
AcDbSpline
210
0.0
220
0.0
230
1.0
 70
     8
 71
     3
 72
    31
 73
    27
 74
     0
 42
0.0000000001
 43
0.0000000001
 40
0.0
 40
0.0
 40
0.0
 40
0.0
 40
0.031265453
 40
0.0625410689
 40
0.093808761
 40
0.1250785118
 40
0.1875362742
 40
0.2499943812
 40
0.2812641555
 40
0.3125340326
 40
0.3438038867
 40
0.3750737243
 40
0.4375332016
 40
0.499993103
 40
0.5624534454
 40
0.6249142516
 40
0.65618427
 40
0.6874543212999999
 40
0.7187244473000001
 40
0.7499945313
 40
0.8124566203
 40
0.8749190942
 40
0.9061893229999999
 40
0.9374595365000001
 40
0.968729721
 40
1.0
 40
1.0
 40
1.0
 40
1.0
 10
7469.914775105916
 20
-5817.428641084525
 30
0.0
 10
7470.265199433716
 20
-5817.147182185625
 30
0.0
 10
7470.937643900214
 20
-5816.547572065625
 30
0.0
 10
7471.848339588416
 20
-5815.549929693824
 30
0.0
 10
7472.652042849515
 20
-5814.463829209123
 30
0.0
 10
7473.568884629315
 20
-5812.915395383225
 30
0.0
 10
7474.410149330916
 20
-5810.815594945425
 30
0.0
 10
7474.806575844316
 20
-5808.588661558624
 30
0.0
 10
7474.848590330715
 20
-5806.789620764726
 30
0.0
 10
7474.742795174417
 20
-5805.442787538825
 30
0.0
 10
7474.500601682215
 20
-5804.113690345723
 30
0.0
 10
7474.000335240217
 20
-5802.385127819825
 30
0.0
 10
7473.049232530915
 20
-5800.332660356025
 30
0.0
 10
7471.436901474316
 20
-5798.152192653624
 30
0.0
 10
7469.420069614816
 20
-5796.339424193824
 30
0.0
 10
7467.468860661516
 20
-5795.195294598824
 30
0.0
 10
7465.797416741316
 20
-5794.528700437125
 30
0.0
 10
7464.498786038816
 20
-5794.156435586425
 30
0.0
 10
7463.169385641215
 20
-5793.916267226524
 30
0.0
 10
7461.375423348314
 20
-5793.775010391623
 30
0.0
 10
7459.119776058216
 20
-5793.936456288925
 30
0.0
 10
7456.941393697317
 20
-5794.543332284625
 30
0.0
 10
7455.299087889016
 20
-5795.278816185025
 30
0.0
 10
7454.127096890214
 20
-5795.950746360924
 30
0.0
 10
7453.027828997315
 20
-5796.735571146723
 30
0.0
 10
7452.350220892616
 20
-5797.329133520825
 30
0.0
 10
7452.027185995216
 20
-5797.641746933425
 30
0.0
  0
SPLINE
  5
17B
330
2
100
AcDbEntity
  8
0
  6
Continuous
 62
     7
100
AcDbSpline
210
0.0
220
0.0
230
1.0
 70
     8
 71
     3
 72
    15
 73
    11
 74
     0
 42
0.0000000001
 43
0.0000000001
 40
0.0
 40
0.0
 40
0.0
 40
0.0
 40
0.1249950371
 40
0.2499873743
 40
0.3749843452
 40
0.4999832560000001
 40
0.6249844597
 40
0.7499877064
 40
0.8749902189
 40
1.0
 40
1.0
 40
1.0
 40
1.0
 10
7475.269803365016
 20
-5808.157320948924
 30
0.0
 10
7475.240471461116
 20
-5809.073370453025
 30
0.0
 10
7474.996557356215
 20
-5810.904768275626
 30
0.0
 10
7474.093559862115
 20
-5813.520210230525
 30
0.0
 10
7472.692080841714
 20
-5815.906984877025
 30
0.0
 10
7470.849760496315
 20
-5817.972054834525
 30
0.0
 10
7468.640165681016
 20
-5819.638035935025
 30
0.0
 10
7466.149309054215
 20
-5820.843740721024
 30
0.0
 10
7463.473834834916
 20
-5821.546421100125
 30
0.0
 10
7461.630978119515
 20
-5821.663876285525
 30
0.0
 10
7460.714826437516
 20
-5821.634357980124
 30
0.0
  0
SPLINE
  5
17C
330
2
100
AcDbEntity
  8
0
  6
Continuous
 62
     7
100
AcDbSpline
210
0.0
220
0.0
230
1.0
 70
     8
 71
     3
 72
    11
 73
     7
 74
     0
 42
0.0000000001
 43
0.0000000001
 40
0.0
 40
0.0
 40
0.0
 40
0.0
 40
0.249984097
 40
0.4999781684000002
 40
0.7499787020000001
 40
1.0
 40
1.0
 40
1.0
 40
1.0
 10
7469.992917184417
 20
-5817.540640971625
 30
0.0
 10
7470.729188787615
 20
-5816.986957109325
 30
0.0
 10
7472.089773253316
 20
-5815.721272972624
 30
0.0
 10
7473.692596268914
 20
-5813.446452813626
 30
0.0
 10
7474.797876249117
 20
-5810.892726890425
 30
0.0
 10
7475.174744183316
 20
-5809.073769555324
 30
0.0
 10
7475.269803365016
 20
-5808.157320948924
 30
0.0
  0
SPLINE
  5
17D
330
2
100
AcDbEntity
  8
0
  6
Continuous
 62
     7
100
AcDbSpline
210
0.0
220
0.0
230
1.0
 70
     8
 71
     3
 72
     9
 73
     5
 74
     0
 42
0.0000000001
 43
0.0000000001
 40
0.0
 40
0.0
 40
0.0
 40
0.0
 40
0.7499387152
 40
1.0
 40
1.0
 40
1.0
 40
1.0
 10
7405.062307738671
 20
-5799.572677732726
 30
0.0
 10
7405.370626691071
 20
-5800.312765445024
 30
0.0
 10
7405.74069896007
 20
-5801.318156309824
 30
0.0
 10
7406.03761172557
 20
-5802.345360414324
 30
0.0
 10
7406.106917382269
 20
-5802.603555265425
 30
0.0
  0
SPLINE
  5
17E
330
2
100
AcDbEntity
  8
0
  6
Continuous
 62
     7
100
AcDbSpline
210
0.0
220
0.0
230
1.0
 70
     8
 71
     3
 72
     9
 73
     5
 74
     0
 42
0.0000000001
 43
0.0000000001
 40
0.0
 40
0.0
 40
0.0
 40
0.0
 40
0.2500613257
 40
1.0
 40
1.0
 40
1.0
 40
1.0
 10
7406.106917382269
 20
-5812.007993170624
 30
0.0
 10
7406.037611714269
 20
-5812.266188063825
 30
0.0
 10
7405.74069892277
 20
-5813.293392160625
 30
0.0
 10
7405.370626674169
 20
-5814.298783031424
 30
0.0
 10
7405.062307738671
 20
-5815.038870703226
 30
0.0
  0
SPLINE
  5
17F
330
2
100
AcDbEntity
  8
0
  6
Continuous
 62
     7
100
AcDbSpline
210
0.0
220
0.0
230
1.0
 70
     8
 71
     3
 72
     9
 73
     5
 74
     0
 42
0.0000000001
 43
0.0000000001
 40
0.0
 40
0.0
 40
0.0
 40
0.0
 40
0.5115880853000001
 40
1.0
 40
1.0
 40
1.0
 40
1.0
 10
7405.062307738671
 20
-5788.825047286525
 30
0.0
 10
7405.26347908327
 20
-5789.066492775123
 30
0.0
 10
7405.63914118177
 20
-5789.553541655426
 30
0.0
 10
7405.965002569169
 20
-5790.076137688025
 30
0.0
 10
7406.106917382269
 20
-5790.340486052825
 30
0.0
  0
SPLINE
  5
180
330
2
100
AcDbEntity
  8
0
  6
Continuous
 62
     7
100
AcDbSpline
210
0.0
220
0.0
230
1.0
 70
     8
 71
     3
 72
     9
 73
     5
 74
     0
 42
0.0000000001
 43
0.0000000001
 40
0.0
 40
0.0
 40
0.0
 40
0.0
 40
0.4884120138
 40
1.0
 40
1.0
 40
1.0
 40
1.0
 10
7406.106917382269
 20
-5795.042705005425
 30
0.0
 10
7405.96500254027
 20
-5795.307053424025
 30
0.0
 10
7405.639141155171
 20
-5795.829649459225
 30
0.0
 10
7405.26347904437
 20
-5796.316698329925
 30
0.0
 10
7405.062307738671
 20
-5796.558143771725
 30
0.0
  0
SPLINE
  5
181
330
2
100
AcDbEntity
  8
0
  6
Continuous
 62
     7
100
AcDbSpline
210
0.0
220
0.0
230
1.0
 70
     8
 71
     3
 72
     9
 73
     5
 74
     0
 42
0.0000000001
 43
0.0000000001
 40
0.0
 40
0.0
 40
0.0
 40
0.0
 40
0.5115880854000002
 40
1.0
 40
1.0
 40
1.0
 40
1.0
 10
7405.062307738671
 20
-5825.786501149526
 30
0.0
 10
7405.26347908327
 20
-5825.545055660825
 30
0.0
 10
7405.63914118177
 20
-5825.058006780523
 30
0.0
 10
7405.965002569169
 20
-5824.535410747925
 30
0.0
 10
7406.106917382269
 20
-5824.271062383123
 30
0.0
  0
SPLINE
  5
182
330
2
100
AcDbEntity
  8
0
  6
Continuous
 62
     7
100
AcDbSpline
210
0.0
220
0.0
230
1.0
 70
     8
 71
     3
 72
     9
 73
     5
 74
     0
 42
0.0000000001
 43
0.0000000001
 40
0.0
 40
0.0
 40
0.0
 40
0.0
 40
0.4884120138
 40
1.0
 40
1.0
 40
1.0
 40
1.0
 10
7406.106917382269
 20
-5819.568843430523
 30
0.0
 10
7405.96500254027
 20
-5819.304495012024
 30
0.0
 10
7405.639141155171
 20
-5818.781898976725
 30
0.0
 10
7405.26347904437
 20
-5818.294850106125
 30
0.0
 10
7405.062307738671
 20
-5818.053404664223
 30
0.0
  0
LINE
  5
183
330
2
100
AcDbEntity
  8
0
  6
CENTER
 62
     1
 48
0.3
100
AcDbLine
 10
7439.977042378498
 20
-5807.305774218025
 30
0.0
 11
7482.573412168576
 21
-5807.305774218025
 31
0.0
  0
LINE
  5
185
330
2
100
AcDbEntity
  8
0
  6
CENTER
 62
     1
 48
0.3
100
AcDbLine
 10
7461.590031538515
 20
-5829.196818444724
 30
0.0
 11
7461.590031538515
 21
-5786.266229448184
 31
0.0
  0
LINE
  5
186
330
2
100
AcDbEntity
  8
0
  6
CENTER
 62
     1
 48
0.3
100
AcDbLine
 10
7395.480108609959
 20
-5807.305774218025
 30
0.0
 11
7416.778293505
 21
-5807.305774218025
 31
0.0
  0
DIMENSION
  5
187
330
2
100
AcDbEntity
  8
0
 62
     3
 48
0.3
370
    13
100
AcDbDimension
  2
*D1
 10
7406.106917382269
 20
-5831.132636788074
 30
0.0
 11
7414.480894189908
 21
-5831.132636788074
 31
0.0
  1
{\f@Arial Unicode MS|b0|i0|c134|p34;H}
 71
     5
 42
3.937499999999089
  3
ISO-25
100
AcDbAlignedDimension
 13
7402.169417382269
 23
-5822.382319929709
 33
0.0
 14
7406.106917382269
 24
-5822.382319929709
 34
0.0
100
AcDbRotatedDimension
1001
ACAD
1000
DSTYLE
1002
{
1070
    41
1040
3.0
1070
    77
1070
     0
1070
    78
1070
    12
1070
   140
1040
3.5
1070
   147
1040
1.0
1070
   171
1070
     0
1070
   273
1070
     7
1002
}
  0
DIMENSION
  5
197
330
2
100
AcDbEntity
  8
0
 62
     3
 48
0.3
370
    13
100
AcDbDimension
  2
*D2
 10
7478.465031538515
 20
-5832.845838356661
 30
0.0
 11
7461.590031538515
 21
-5832.845838356661
 31
0.0
  1
{\f@Arial Unicode MS|b0|i0|c134|p34;SW}
 71
     5
 42
33.75
  3
ISO-25
100
AcDbAlignedDimension
 13
7444.715031538516
 23
-5812.007994568395
 33
0.0
 14
7478.465031538515
 24
-5812.007994568394
 34
0.0
100
AcDbRotatedDimension
1001
ACAD
1000
DSTYLE
1002
{
1070
    41
1040
3.0
1070
    77
1070
     0
1070
    78
1070
    12
1070
   140
1040
3.5
1070
   147
1040
1.0
1070
   171
1070
     0
1070
   273
1070
     7
1002
}
  0
MTEXT
  5
1A5
330
2
100
AcDbEntity
  8
0
370
    -3
100
AcDbMText
 10
7231.180060607491
 20
-5731.290587113918
 30
0.0
 40
4.5
 41
51.33816654271086
 71
     1
 72
     5
  1
{\fSimSun|b1|i0|c134|p2;Metric}
 73
     1
 44
1.0
1001
ACAD
1000
MTEXTBEGIN
1070
    73
1070
     1
1070
    44
1040
1.0
1070
    74
1070
     0
1000
MTEXTEND
  0
LINE
  5
1A6
330
2
100
AcDbEntity
  8
0
370
    -3
100
AcDbLine
 10
7252.113775655416
 20
-5728.191282663373
 30
0.0
 11
7252.113775655416
 21
-5739.047175750951
 31
0.0
  0
LINE
  5
1A7
330
2
100
AcDbEntity
  8
0
370
    -3
100
AcDbLine
 10
7252.113775655416
 20
-5739.047175750951
 30
0.0
 11
7252.113775655416
 21
-5814.047175750951
 31
0.0
  0
LINE
  5
1A8
330
2
100
AcDbEntity
  8
0
370
    -3
100
AcDbLine
 10
7252.113775655416
 20
-5814.047175750951
 30
0.0
 11
7252.113775655416
 21
-5865.382105943783
 31
0.0
  0
LINE
  5
1A9
330
2
100
AcDbEntity
  8
0
370
    -3
100
AcDbLine
 10
7274.384111878018
 20
-5728.314682375863
 30
0.0
 11
7274.384111878018
 21
-5739.047175750951
 31
0.0
  0
LINE
  5
1AA
330
2
100
AcDbEntity
  8
0
370
    -3
100
AcDbLine
 10
7274.384111878018
 20
-5739.047175750951
 30
0.0
 11
7274.384111878018
 21
-5814.047175750951
 31
0.0
  0
LINE
  5
1AB
330
2
100
AcDbEntity
  8
0
370
    -3
100
AcDbLine
 10
7274.384111878018
 20
-5814.047175750951
 30
0.0
 11
7274.384111878018
 21
-5865.382105943783
 31
0.0
  0
MTEXT
  5
1AC
330
2
100
AcDbEntity
  8
0
370
    -3
100
AcDbMText
 10
7253.613239585135
 20
-5731.832746214713
 30
0.0
 40
4.5
 41
51.33816654271086
 71
     1
 72
     5
  1
{\fSimSun|b1|i0|c134|p2;  PG}
 73
     1
 44
1.0
1001
ACAD
1000
MTEXTBEGIN
1070
    73
1070
     1
1070
    44
1040
1.0
1070
    74
1070
     0
1000
MTEXTEND
  0
LINE
  5
1AD
330
2
100
AcDbEntity
  8
0
370
    -3
100
AcDbLine
 10
7329.729221010762
 20
-5865.382105943783
 30
0.0
 11
7329.729221010762
 21
-5814.047175750951
 31
0.0
  0
LINE
  5
1AE
330
2
100
AcDbEntity
  8
0
370
    -3
100
AcDbLine
 10
7329.729221010762
 20
-5814.047175750951
 30
0.0
 11
7329.729221010762
 21
-5739.047175750951
 31
0.0
  0
LINE
  5
1AF
330
2
100
AcDbEntity
  8
0
370
    -3
100
AcDbLine
 10
7329.729221010762
 20
-5739.047175750951
 30
0.0
 11
7329.729221010762
 21
-5728.314682375863
 31
0.0
  0
MTEXT
  5
1B0
330
2
100
AcDbEntity
  8
0
370
    -3
100
AcDbMText
 10
7275.928542920663
 20
-5731.521603463827
 30
0.0
 40
3.6
 41
41.07053323416868
 71
     1
 72
     5
  1
{\fSimSun|b1|i0|c134|p2;\W0.9;Thickness(H)\W0.7; }
 73
     1
 44
1.0
1001
ACAD
1000
MTEXTBEGIN
1070
    73
1070
     1
1070
    44
1040
1.0
1070
    74
1070
     0
1000
MTEXTEND
  0
MTEXT
  5
1B1
330
2
100
AcDbEntity
  8
0
370
    -3
100
AcDbMText
 10
7340.57902247831
 20
-5731.064708190452
 30
0.0
 40
4.5
 41
51.33816654271086
 71
     1
 72
     5
  1
{\fSimSun|b1|i0|c134|p2;Type}
 73
     1
 44
1.0
1001
ACAD
1000
MTEXTBEGIN
1070
    73
1070
     1
1070
    44
1040
1.0
1070
    74
1070
     0
1000
MTEXTEND
  0
LINE
  5
1B2
330
2
100
AcDbEntity
  8
0
370
    -3
100
AcDbLine
 10
7227.886873122257
 20
-5739.047175750951
 30
0.0
 11
7364.514022170924
 21
-5739.047175750951
 31
0.0
  0
LINE
  5
1B3
330
2
100
AcDbEntity
  8
0
370
    -3
100
AcDbLine
 10
7227.886873122257
 20
-5761.547175750951
 30
0.0
 11
7364.514022170924
 21
-5761.547175750951
 31
0.0
  0
LINE
  5
1B4
330
2
100
AcDbEntity
  8
0
370
    -3
100
AcDbLine
 10
7227.886873122257
 20
-5769.047175750952
 30
0.0
 11
7364.514022170924
 21
-5769.047175750952
 31
0.0
  0
LINE
  5
1B5
330
2
100
AcDbEntity
  8
0
370
    -3
100
AcDbLine
 10
7227.886873122257
 20
-5776.547175750952
 30
0.0
 11
7364.514022170924
 21
-5776.547175750952
 31
0.0
  0
LINE
  5
1B6
330
2
100
AcDbEntity
  8
0
370
    -3
100
AcDbLine
 10
7227.886873122257
 20
-5784.047175750951
 30
0.0
 11
7364.514022170924
 21
-5784.047175750951
 31
0.0
  0
LINE
  5
1B7
330
2
100
AcDbEntity
  8
0
370
    -3
100
AcDbLine
 10
7227.886873122257
 20
-5791.547175750952
 30
0.0
 11
7364.514022170924
 21
-5791.547175750952
 31
0.0
  0
LINE
  5
1B8
330
2
100
AcDbEntity
  8
0
370
    -3
100
AcDbLine
 10
7227.886873122257
 20
-5799.047175750951
 30
0.0
 11
7364.514022170924
 21
-5799.047175750951
 31
0.0
  0
LINE
  5
1B9
330
2
100
AcDbEntity
  8
0
370
    -3
100
AcDbLine
 10
7227.886873122257
 20
-5806.547175750951
 30
0.0
 11
7364.514022170924
 21
-5806.547175750951
 31
0.0
  0
LINE
  5
1BA
330
2
100
AcDbEntity
  8
0
370
    -3
100
AcDbLine
 10
7227.886873122257
 20
-5814.047175750951
 30
0.0
 11
7364.514022170924
 21
-5814.047175750951
 31
0.0
  0
LINE
  5
1BB
330
2
100
AcDbEntity
  8
0
370
    -3
100
AcDbLine
 10
7227.886873122257
 20
-5821.547175750951
 30
0.0
 11
7364.514022170924
 21
-5821.547175750951
 31
0.0
  0
LINE
  5
1BC
330
2
100
AcDbEntity
  8
0
370
    -3
100
AcDbLine
 10
7227.886873122257
 20
-5829.047175750951
 30
0.0
 11
7364.514022170924
 21
-5829.047175750951
 31
0.0
  0
LINE
  5
1BD
330
2
100
AcDbEntity
  8
0
370
    -3
100
AcDbLine
 10
7227.886873122257
 20
-5836.547175750951
 30
0.0
 11
7364.514022170924
 21
-5836.547175750951
 31
0.0
  0
LINE
  5
1BE
330
2
100
AcDbEntity
  8
0
370
    -3
100
AcDbLine
 10
7227.886873122257
 20
-5836.547175750951
 30
0.0
 11
7364.514022170924
 21
-5836.547175750951
 31
0.0
  0
LINE
  5
1BF
330
2
100
AcDbEntity
  8
0
370
    -3
100
AcDbLine
 10
7227.886873122257
 20
-5851.547175750951
 30
0.0
 11
7364.514022170924
 21
-5851.547175750951
 31
0.0
  0
MTEXT
  5
1C0
330
2
100
AcDbEntity
  8
0
370
    -3
100
AcDbMText
 10
7255.655930652206
 20
-5768.218734799123
 30
0.0
 40
3.75
 41
24.11393081438792
 71
     7
 72
     5
  1
{\fSimSun|b0|i0|c134|p2;Pg13.5}
 73
     1
 44
1.0
1001
ACAD
1000
MTEXTBEGIN
1070
    73
1070
     1
1070
    44
1040
1.0
1070
    74
1070
     0
1000
MTEXTEND
  0
MTEXT
  5
1C1
330
2
100
AcDbEntity
  8
0
370
    -3
100
AcDbMText
 10
7285.994374397787
 20
-5767.03905177703
 30
0.0
 40
3.75
 41
48.40135546935242
 71
     7
 72
     5
  1
{\fSimSun|b0|i0|c134|p2;5.0}
 73
     1
 44
1.0
1001
ACAD
1000
MTEXTBEGIN
1070
    73
1070
     1
1070
    44
1040
1.0
1070
    74
1070
     0
1000
MTEXTEND
  0
MTEXT
  5
1C2
330
2
100
AcDbEntity
  8
0
370
    -3
100
AcDbMText
 10
7334.080744162431
 20
-5767.184675708865
 30
0.0
 40
3.75
 41
48.40135546935242
 71
     7
 72
     5
  1
{\fSimSun|b0|i0|c134|p2;DLM-PG13.5P}
 73
     1
 44
1.0
1001
ACAD
1000
MTEXTBEGIN
1070
    73
1070
     1
1070
    44
1040
1.0
1070
    74
1070
     0
1000
MTEXTEND
  0
MTEXT
  5
1C3
330
2
100
AcDbEntity
  8
0
370
    -3
100
AcDbMText
 10
7255.715816983401
 20
-5760.315111796025
 30
0.0
 40
3.75
 41
24.11393081438792
 71
     7
 72
     5
  1
{\fSimSun|b0|i0|c134|p2;Pg11}
 73
     1
 44
1.0
1001
ACAD
1000
MTEXTBEGIN
1070
    73
1070
     1
1070
    44
1040
1.0
1070
    74
1070
     0
1000
MTEXTEND
  0
MTEXT
  5
1C4
330
2
100
AcDbEntity
  8
0
370
    -3
100
AcDbMText
 10
7285.764440825174
 20
-5759.552175276211
 30
0.0
 40
3.75
 41
48.40135546935242
 71
     7
 72
     5
  1
{\fSimSun|b0|i0|c134|p2;5.0}
 73
     1
 44
1.0
1001
ACAD
1000
MTEXTBEGIN
1070
    73
1070
     1
1070
    44
1040
1.0
1070
    74
1070
     0
1000
MTEXTEND
  0
MTEXT
  5
1C5
330
2
100
AcDbEntity
  8
0
370
    -3
100
AcDbMText
 10
7333.794903668877
 20
-5759.702489119799
 30
0.0
 40
3.75
 41
48.40135546935242
 71
     7
 72
     5
  1
{\fSimSun|b0|i0|c134|p2;DLM-PG11P}
 73
     1
 44
1.0
1001
ACAD
1000
MTEXTBEGIN
1070
    73
1070
     1
1070
    44
1040
1.0
1070
    74
1070
     0
1000
MTEXTEND
  0
MTEXT
  5
1C6
330
2
100
AcDbEntity
  8
0
370
    -3
100
AcDbMText
 10
7255.949578573738
 20
-5797.924602699747
 30
0.0
 40
3.75
 41
24.11393081438792
 71
     7
 72
     5
  1
{\fSimSun|b0|i0|c134|p2;Pg36}
 73
     1
 44
1.0
1001
ACAD
1000
MTEXTBEGIN
1070
    73
1070
     1
1070
    44
1040
1.0
1070
    74
1070
     0
1000
MTEXTEND
  0
MTEXT
  5
1C7
330
2
100
AcDbEntity
  8
0
370
    -3
100
AcDbMText
 10
7285.877665729849
 20
-5796.5336607379
 30
0.0
 40
3.75
 41
48.40135546935242
 71
     7
 72
     5
  1
{\fSimSun|b0|i0|c134|p2;8.0}
 73
     1
 44
1.0
1001
ACAD
1000
MTEXTBEGIN
1070
    73
1070
     1
1070
    44
1040
1.0
1070
    74
1070
     0
1000
MTEXTEND
  0
MTEXT
  5
1C8
330
2
100
AcDbEntity
  8
0
370
    -3
100
AcDbMText
 10
7333.80714491793
 20
-5797.387653565591
 30
0.0
 40
3.75
 41
48.40135546935242
 71
     7
 72
     5
  1
{\fSimSun|b0|i0|c134|p2;DLM-PG36P}
 73
     1
 44
1.0
1001
ACAD
1000
MTEXTBEGIN
1070
    73
1070
     1
1070
    44
1040
1.0
1070
    74
1070
     0
1000
MTEXTEND
  0
MTEXT
  5
1C9
330
2
100
AcDbEntity
  8
0
370
    -3
100
AcDbMText
 10
7255.786066178314
 20
-5790.647383789814
 30
0.0
 40
3.75
 41
24.11393081438792
 71
     7
 72
     5
  1
{\fSimSun|b0|i0|c134|p2;Pg29}
 73
     1
 44
1.0
1001
ACAD
1000
MTEXTBEGIN
1070
    73
1070
     1
1070
    44
1040
1.0
1070
    74
1070
     0
1000
MTEXTEND
  0
MTEXT
  5
1CA
330
2
100
AcDbEntity
  8
0
370
    -3
100
AcDbMText
 10
7285.850752967391
 20
-5789.715535317498
 30
0.0
 40
3.75
 41
48.40135546935242
 71
     7
 72
     5
  1
{\fSimSun|b0|i0|c134|p2;7.0}
 73
     1
 44
1.0
1001
ACAD
1000
MTEXTBEGIN
1070
    73
1070
     1
1070
    44
1040
1.0
1070
    74
1070
     0
1000
MTEXTEND
  0
MTEXT
  5
1CB
330
2
100
AcDbEntity
  8
0
370
    -3
100
AcDbMText
 10
7334.037622588777
 20
-5789.56097357685
 30
0.0
 40
3.75
 41
48.40135546935242
 71
     7
 72
     5
  1
{\fSimSun|b0|i0|c134|p2;DLM-PG29P}
 73
     1
 44
1.0
1001
ACAD
1000
MTEXTBEGIN
1070
    73
1070
     1
1070
    44
1040
1.0
1070
    74
1070
     0
1000
MTEXTEND
  0
MTEXT
  5
1CC
330
2
100
AcDbEntity
  8
0
370
    -3
100
AcDbMText
 10
7255.655930652206
 20
-5770.8861947974
 30
0.0
 40
3.75
 41
24.11393081438792
 71
     1
 72
     5
  1
{\fSimSun|b0|i0|c134|p2;Pg16}
 73
     1
 44
1.0
1001
ACAD
1000
MTEXTBEGIN
1070
    73
1070
     1
1070
    44
1040
1.0
1070
    74
1070
     0
1000
MTEXTEND
  0
MTEXT
  5
1CD
330
2
100
AcDbEntity
  8
0
370
    -3
100
AcDbMText
 10
7285.877665729849
 20
-5771.086336423574
 30
0.0
 40
3.75
 41
48.40135546935242
 71
     1
 72
     5
  1
{\fSimSun|b0|i0|c134|p2;5.5}
 73
     1
 44
1.0
1001
ACAD
1000
MTEXTBEGIN
1070
    73
1070
     1
1070
    44
1040
1.0
1070
    74
1070
     0
1000
MTEXTEND
  0
MTEXT
  5
1CE
330
2
100
AcDbEntity
  8
0
370
    -3
100
AcDbMText
 10
7334.080744162431
 20
-5770.883504553877
 30
0.0
 40
3.75
 41
48.40135546935242
 71
     1
 72
     5
  1
{\fSimSun|b0|i0|c134|p2;DLM-PG16P}
 73
     1
 44
1.0
1001
ACAD
1000
MTEXTBEGIN
1070
    73
1070
     1
1070
    44
1040
1.0
1070
    74
1070
     0
1000
MTEXTEND
  0
MTEXT
  5
1CF
330
2
100
AcDbEntity
  8
0
370
    -3
100
AcDbMText
 10
7255.715816983401
 20
-5777.947190126489
 30
0.0
 40
3.75
 41
24.11393081438792
 71
     1
 72
     5
  1
{\fSimSun|b0|i0|c134|p2;Pg21}
 73
     1
 44
1.0
1001
ACAD
1000
MTEXTBEGIN
1070
    73
1070
     1
1070
    44
1040
1.0
1070
    74
1070
     0
1000
MTEXTEND
  0
MTEXT
  5
1D0
330
2
100
AcDbEntity
  8
0
370
    -3
100
AcDbMText
 10
7285.764440825174
 20
-5778.18841241448
 30
0.0
 40
3.75
 41
48.40135546935242
 71
     1
 72
     5
  1
{\fSimSun|b0|i0|c134|p2;6.0}
 73
     1
 44
1.0
1001
ACAD
1000
MTEXTBEGIN
1070
    73
1070
     1
1070
    44
1040
1.0
1070
    74
1070
     0
1000
MTEXTEND
  0
MTEXT
  5
1D1
330
2
100
AcDbEntity
  8
0
370
    -3
100
AcDbMText
 10
7333.794903668877
 20
-5778.115769342834
 30
0.0
 40
3.75
 41
48.40135546935242
 71
     1
 72
     5
  1
{\fSimSun|b0|i0|c134|p2;DLM-PG21P}
 73
     1
 44
1.0
1001
ACAD
1000
MTEXTBEGIN
1070
    73
1070
     1
1070
    44
1040
1.0
1070
    74
1070
     0
1000
MTEXTEND
  0
MTEXT
  5
1D2
330
2
100
AcDbEntity
  8
0
370
    -3
100
AcDbMText
 10
7256.005488216091
 20
-5800.984304570821
 30
0.0
 40
3.75
 41
24.11393081438792
 71
     1
 72
     5
  1
{\fSimSun|b0|i0|c134|p2;Pg42}
 73
     1
 44
1.0
1001
ACAD
1000
MTEXTBEGIN
1070
    73
1070
     1
1070
    44
1040
1.0
1070
    74
1070
     0
1000
MTEXTEND
  0
MTEXT
  5
1D3
330
2
100
AcDbEntity
  8
0
370
    -3
100
AcDbMText
 10
7285.877665729849
 20
-5801.206926952789
 30
0.0
 40
3.75
 41
48.40135546935242
 71
     1
 72
     5
  1
{\fSimSun|b0|i0|c134|p2;8.0}
 73
     1
 44
1.0
1001
ACAD
1000
MTEXTBEGIN
1070
    73
1070
     1
1070
    44
1040
1.0
1070
    74
1070
     0
1000
MTEXTEND
  0
MTEXT
  5
1D4
330
2
100
AcDbEntity
  8
0
370
    -3
100
AcDbMText
 10
7333.877655469139
 20
-5801.134279952596
 30
0.0
 40
3.75
 41
48.40135546935242
 71
     1
 72
     5
  1
{\fSimSun|b0|i0|c134|p2;DLM-PG42P}
 73
     1
 44
1.0
1001
ACAD
1000
MTEXTBEGIN
1070
    73
1070
     1
1070
    44
1040
1.0
1070
    74
1070
     0
1000
MTEXTEND
  0
MTEXT
  5
1D5
330
2
100
AcDbEntity
  8
0
370
    -3
100
AcDbMText
 10
7285.877665729849
 20
-5853.706926952789
 30
0.0
 40
3.75
 41
48.40135546935242
 71
     1
 72
     5
  1
{\fSimSun|b0|i0|c134|p2;8.0}
 73
     1
 44
1.0
1001
ACAD
1000
MTEXTBEGIN
1070
    73
1070
     1
1070
    44
1040
1.0
1070
    74
1070
     0
1000
MTEXTEND
  0
MTEXT
  5
1D6
330
2
100
AcDbEntity
  8
0
370
    -3
100
AcDbMText
 10
7333.657633500877
 20
-5853.076721038455
 30
0.0
 40
3.75
 41
48.40135546935242
 71
     1
 72
     5
  1
{\fSimSun|b0|i0|c134|p2;DLM-M50P}
 73
     1
 44
1.0
1001
ACAD
1000
MTEXTBEGIN
1070
    73
1070
     1
1070
    44
1040
1.0
1070
    74
1070
     0
1000
MTEXTEND
  0
MTEXT
  5
1D7
330
2
100
AcDbEntity
  8
0
370
    -3
100
AcDbMText
 10
7285.764440825174
 20
-5860.68841241448
 30
0.0
 40
3.75
 41
48.40135546935242
 71
     1
 72
     5
  1
{\fSimSun|b0|i0|c134|p2;8.0}
 73
     1
 44
1.0
1001
ACAD
1000
MTEXTBEGIN
1070
    73
1070
     1
1070
    44
1040
1.0
1070
    74
1070
     0
1000
MTEXTEND
  0
MTEXT
  5
1D8
330
2
100
AcDbEntity
  8
0
370
    -3
100
AcDbMText
 10
7333.794903668877
 20
-5860.113663093905
 30
0.0
 40
3.75
 41
48.40135546935242
 71
     1
 72
     5
  1
{\fSimSun|b0|i0|c134|p2;DLM-M63P}
 73
     1
 44
1.0
1001
ACAD
1000
MTEXTBEGIN
1070
    73
1070
     1
1070
    44
1040
1.0
1070
    74
1070
     0
1000
MTEXTEND
  0
MTEXT
  5
1D9
330
2
100
AcDbEntity
  8
0
370
    -3
100
AcDbMText
 10
7231.211504449297
 20
-5823.466680855069
 30
0.0
 40
3.75
 41
24.11393081438792
 71
     1
 72
     5
  1
{\fSimSun|b0|i0|c134|p2;M20x1.5}
 73
     1
 44
1.0
1001
ACAD
1000
MTEXTBEGIN
1070
    73
1070
     1
1070
    44
1040
1.0
1070
    74
1070
     0
1000
MTEXTEND
  0
MTEXT
  5
1DA
330
2
100
AcDbEntity
  8
0
370
    -3
100
AcDbMText
 10
7285.877665729849
 20
-5823.429817338714
 30
0.0
 40
3.75
 41
48.40135546935242
 71
     1
 72
     5
  1
{\fSimSun|b0|i0|c134|p2;5.0}
 73
     1
 44
1.0
1001
ACAD
1000
MTEXTBEGIN
1070
    73
1070
     1
1070
    44
1040
1.0
1070
    74
1070
     0
1000
MTEXTEND
  0
MTEXT
  5
1DB
330
2
100
AcDbEntity
  8
0
370
    -3
100
AcDbMText
 10
7333.948166020348
 20
-5823.47050453891
 30
0.0
 40
3.75
 41
48.40135546935242
 71
     1
 72
     5
  1
{\fSimSun|b0|i0|c134|p2;DLM-M20P}
 73
     1
 44
1.0
1001
ACAD
1000
MTEXTBEGIN
1070
    73
1070
     1
1070
    44
1040
1.0
1070
    74
1070
     0
1000
MTEXTEND
  0
MTEXT
  5
1DC
330
2
100
AcDbEntity
  8
0
370
    -3
100
AcDbMText
 10
7285.850752967391
 20
-5830.774671526022
 30
0.0
 40
3.75
 41
48.40135546935242
 71
     1
 72
     5
  1
{\fSimSun|b0|i0|c134|p2;6.0}
 73
     1
 44
1.0
1001
ACAD
1000
MTEXTBEGIN
1070
    73
1070
     1
1070
    44
1040
1.0
1070
    74
1070
     0
1000
MTEXTEND
  0
MTEXT
  5
1DD
330
2
100
AcDbEntity
  8
0
370
    -3
100
AcDbMText
 10
7333.717041576199
 20
-5830.740929111727
 30
0.0
 40
3.75
 41
48.40135546935242
 71
     1
 72
     5
  1
{\fSimSun|b0|i0|c134|p2;DLM-M25P}
 73
     1
 44
1.0
1001
ACAD
1000
MTEXTBEGIN
1070
    73
1070
     1
1070
    44
1040
1.0
1070
    74
1070
     0
1000
MTEXTEND
  0
MTEXT
  5
1DE
330
2
100
AcDbEntity
  8
0
370
    -3
100
AcDbMText
 10
7285.877665729849
 20
-5850.029453381612
 30
0.0
 40
3.75
 41
48.40135546935242
 71
     7
 72
     5
  1
{\fSimSun|b0|i0|c134|p2;8.0}
 73
     1
 44
1.0
1001
ACAD
1000
MTEXTBEGIN
1070
    73
1070
     1
1070
    44
1040
1.0
1070
    74
1070
     0
1000
MTEXTEND
  0
MTEXT
  5
1DF
330
2
100
AcDbEntity
  8
0
370
    -3
100
AcDbMText
 10
7333.798686172824
 20
-5850.177981678786
 30
0.0
 40
3.75
 41
48.40135546935242
 71
     7
 72
     5
  1
{\fSimSun|b0|i0|c134|p2;DLM-M40P}
 73
     1
 44
1.0
1001
ACAD
1000
MTEXTBEGIN
1070
    73
1070
     1
1070
    44
1040
1.0
1070
    74
1070
     0
1000
MTEXTEND
  0
MTEXT
  5
1E0
330
2
100
AcDbEntity
  8
0
370
    -3
100
AcDbMText
 10
7285.764440825174
 20
-5842.052175276211
 30
0.0
 40
3.75
 41
48.40135546935242
 71
     7
 72
     5
  1
{\fSimSun|b0|i0|c134|p2;6.0}
 73
     1
 44
1.0
1001
ACAD
1000
MTEXTBEGIN
1070
    73
1070
     1
1070
    44
1040
1.0
1070
    74
1070
     0
1000
MTEXTEND
  0
MTEXT
  5
1E1
330
2
100
AcDbEntity
  8
0
370
    -3
100
AcDbMText
 10
7333.653866781689
 20
-5842.357039158279
 30
0.0
 40
3.75
 41
48.40135546935242
 71
     7
 72
     5
  1
{\fSimSun|b0|i0|c134|p2;DLM-M32P}
 73
     1
 44
1.0
1001
ACAD
1000
MTEXTBEGIN
1070
    73
1070
     1
1070
    44
1040
1.0
1070
    74
1070
     0
1000
MTEXTEND
  0
MTEXT
  5
1E2
330
2
100
AcDbEntity
  8
0
370
    -3
100
AcDbMText
 10
7231.145343557868
 20
-5845.989384038434
 30
0.0
 40
3.75
 41
24.11393081438792
 71
     1
 72
     5
  1
{\fSimSun|b0|i0|c134|p2;M40x1.5}
 73
     1
 44
1.0
1001
ACAD
1000
MTEXTBEGIN
1070
    73
1070
     1
1070
    44
1040
1.0
1070
    74
1070
     0
1000
MTEXTEND
  0
MTEXT
  5
1E3
330
2
100
AcDbEntity
  8
0
370
    -3
100
AcDbMText
 10
7230.72437404053
 20
-5842.327171632149
 30
0.0
 40
3.75
 41
24.11393081438792
 71
     7
 72
     5
  1
{\fSimSun|b0|i0|c134|p2;M32x1.5}
 73
     1
 44
1.0
1001
ACAD
1000
MTEXTBEGIN
1070
    73
1070
     1
1070
    44
1040
1.0
1070
    74
1070
     0
1000
MTEXTEND
  0
MTEXT
  5
1E4
330
2
100
AcDbEntity
  8
0
370
    -3
100
AcDbMText
 10
7231.147287728534
 20
-5834.566843148137
 30
0.0
 40
3.75
 41
24.11393081438792
 71
     7
 72
     5
  1
{\fSimSun|b0|i0|c134|p2;M25x1.5}
 73
     1
 44
1.0
1001
ACAD
1000
MTEXTBEGIN
1070
    73
1070
     1
1070
    44
1040
1.0
1070
    74
1070
     0
1000
MTEXTEND
  0
MTEXT
  5
1E5
330
2
100
AcDbEntity
  8
0
370
    -3
100
AcDbMText
 10
7231.049527167066
 20
-5863.970191455567
 30
0.0
 40
3.75
 41
24.11393081438792
 71
     7
 72
     5
  1
{\fSimSun|b0|i0|c134|p2;M63x1.5}
 73
     1
 44
1.0
1001
ACAD
1000
MTEXTBEGIN
1070
    73
1070
     1
1070
    44
1040
1.0
1070
    74
1070
     0
1000
MTEXTEND
  0
MTEXT
  5
1E6
330
2
100
AcDbEntity
  8
0
370
    -3
100
AcDbMText
 10
7231.09833535307
 20
-5856.889448777327
 30
0.0
 40
3.75
 41
24.11393081438792
 71
     7
 72
     5
  1
{\fSimSun|b0|i0|c134|p2;M50x1.5}
 73
     1
 44
1.0
1001
ACAD
1000
MTEXTBEGIN
1070
    73
1070
     1
1070
    44
1040
1.0
1070
    74
1070
     0
1000
MTEXTEND
  0
LINE
  5
1E7
330
2
100
AcDbEntity
  8
0
370
    -3
100
AcDbLine
 10
7227.886873122257
 20
-5844.629710654535
 30
0.0
 11
7364.514022170924
 21
-5844.629710654535
 31
0.0
  0
LINE
  5
1E8
330
2
100
AcDbEntity
  8
0
370
    -3
100
AcDbLine
 10
7303.881665684023
 20
-5728.314682375863
 30
0.0
 11
7303.881665684023
 21
-5739.047175750951
 31
0.0
  0
LINE
  5
1E9
330
2
100
AcDbEntity
  8
0
370
    -3
100
AcDbLine
 10
7303.881665684027
 20
-5739.047175750951
 30
0.0
 11
7303.881665684023
 21
-5814.047175750951
 31
0.0
  0
LINE
  5
1EA
330
2
100
AcDbEntity
  8
0
370
    -3
100
AcDbLine
 10
7303.881665684023
 20
-5814.047175750951
 30
0.0
 11
7303.881665684023
 21
-5865.382105943783
 31
0.0
  0
MTEXT
  5
1EB
330
2
100
AcDbEntity
  8
0
370
    -3
100
AcDbMText
 10
7313.797790444363
 20
-5732.051754415959
 30
0.0
 40
4.5
 41
51.33816654271086
 71
     1
 72
     5
  1
{\fSimSun|b1|i0|c134|p2;SW}
 73
     1
 44
1.0
1001
ACAD
1000
MTEXTBEGIN
1070
    73
1070
     1
1070
    44
1040
1.0
1070
    74
1070
     0
1000
MTEXTEND
  0
MTEXT
  5
1EC
330
2
100
AcDbEntity
  8
0
370
    -3
100
AcDbMText
 10
7313.776745444477
 20
-5759.666395868631
 30
0.0
 40
3.75
 41
48.40135546935242
 71
     7
 72
     5
  1
{\fSimSun|b0|i0|c134|p2;24}
 73
     1
 44
1.0
1001
ACAD
1000
MTEXTBEGIN
1070
    73
1070
     1
1070
    44
1040
1.0
1070
    74
1070
     0
1000
MTEXTEND
  0
MTEXT
  5
1ED
330
2
100
AcDbEntity
  8
0
370
    -3
100
AcDbMText
 10
7313.620001201861
 20
-5766.981667967968
 30
0.0
 40
3.75
 41
48.40135546935242
 71
     7
 72
     5
  1
{\fSimSun|b0|i0|c134|p2;27}
 73
     1
 44
1.0
1001
ACAD
1000
MTEXTBEGIN
1070
    73
1070
     1
1070
    44
1040
1.0
1070
    74
1070
     0
1000
MTEXTEND
  0
MTEXT
  5
1EE
330
2
100
AcDbEntity
  8
0
370
    -3
100
AcDbMText
 10
7313.701109307463
 20
-5796.981667967968
 30
0.0
 40
3.75
 41
48.40135546935242
 71
     7
 72
     5
  1
{\fSimSun|b0|i0|c134|p2;58}
 73
     1
 44
1.0
1001
ACAD
1000
MTEXTBEGIN
1070
    73
1070
     1
1070
    44
1040
1.0
1070
    74
1070
     0
1000
MTEXTEND
  0
MTEXT
  5
1EF
330
2
100
AcDbEntity
  8
0
370
    -3
100
AcDbMText
 10
7313.674196545004
 20
-5789.635322161923
 30
0.0
 40
3.75
 41
48.40135546935242
 71
     7
 72
     5
  1
{\fSimSun|b0|i0|c134|p2;45}
 73
     1
 44
1.0
1001
ACAD
1000
MTEXTBEGIN
1070
    73
1070
     1
1070
    44
1040
1.0
1070
    74
1070
     0
1000
MTEXTEND
  0
MTEXT
  5
1F0
330
2
100
AcDbEntity
  8
0
370
    -3
100
AcDbMText
 10
7313.701109307463
 20
-5771.056420363541
 30
0.0
 40
3.75
 41
48.40135546935242
 71
     1
 72
     5
  1
{\fSimSun|b0|i0|c134|p2;30}
 73
     1
 44
1.0
1001
ACAD
1000
MTEXTBEGIN
1070
    73
1070
     1
1070
    44
1040
1.0
1070
    74
1070
     0
1000
MTEXTEND
  0
MTEXT
  5
1F1
330
2
100
AcDbEntity
  8
0
370
    -3
100
AcDbMText
 10
7313.587884402784
 20
-5778.497122631083
 30
0.0
 40
3.75
 41
48.40135546935242
 71
     1
 72
     5
  1
{\fSimSun|b0|i0|c134|p2;35}
 73
     1
 44
1.0
1001
ACAD
1000
MTEXTBEGIN
1070
    73
1070
     1
1070
    44
1040
1.0
1070
    74
1070
     0
1000
MTEXTEND
  0
MTEXT
  5
1F2
330
2
100
AcDbEntity
  8
0
370
    -3
100
AcDbMText
 10
7313.701109307463
 20
-5801.180469718812
 30
0.0
 40
3.75
 41
48.40135546935242
 71
     1
 72
     5
  1
{\fSimSun|b0|i0|c134|p2;65}
 73
     1
 44
1.0
1001
ACAD
1000
MTEXTBEGIN
1070
    73
1070
     1
1070
    44
1040
1.0
1070
    74
1070
     0
1000
MTEXTEND
  0
MTEXT
  5
1F3
330
2
100
AcDbEntity
  8
0
370
    -3
100
AcDbMText
 10
7313.701109307463
 20
-5854.154934182854
 30
0.0
 40
3.75
 41
48.40135546935242
 71
     1
 72
     5
  1
{\fSimSun|b0|i0|c134|p2;60}
 73
     1
 44
1.0
1001
ACAD
1000
MTEXTBEGIN
1070
    73
1070
     1
1070
    44
1040
1.0
1070
    74
1070
     0
1000
MTEXTEND
  0
MTEXT
  5
1F4
330
2
100
AcDbEntity
  8
0
370
    -3
100
AcDbMText
 10
7313.587884402784
 20
-5860.287926378021
 30
0.0
 40
3.75
 41
48.40135546935242
 71
     1
 72
     5
  1
{\fSimSun|b0|i0|c134|p2;73}
 73
     1
 44
1.0
1001
ACAD
1000
MTEXTBEGIN
1070
    73
1070
     1
1070
    44
1040
1.0
1070
    74
1070
     0
1000
MTEXTEND
  0
MTEXT
  5
1F5
330
2
100
AcDbEntity
  8
0
370
    -3
100
AcDbMText
 10
7313.701109307463
 20
-5823.393970833175
 30
0.0
 40
3.75
 41
48.40135546935242
 71
     1
 72
     5
  1
{\fSimSun|b0|i0|c134|p2;27}
 73
     1
 44
1.0
1001
ACAD
1000
MTEXTBEGIN
1070
    73
1070
     1
1070
    44
1040
1.0
1070
    74
1070
     0
1000
MTEXTEND
  0
MTEXT
  5
1F6
330
2
100
AcDbEntity
  8
0
370
    -3
100
AcDbMText
 10
7313.674196545004
 20
-5831.222678756087
 30
0.0
 40
3.75
 41
48.40135546935242
 71
     1
 72
     5
  1
{\fSimSun|b0|i0|c134|p2;30}
 73
     1
 44
1.0
1001
ACAD
1000
MTEXTBEGIN
1070
    73
1070
     1
1070
    44
1040
1.0
1070
    74
1070
     0
1000
MTEXTEND
  0
MTEXT
  5
1F7
330
2
100
AcDbEntity
  8
0
370
    -3
100
AcDbMText
 10
7313.701109307463
 20
-5849.753245411783
 30
0.0
 40
3.75
 41
48.40135546935242
 71
     7
 72
     5
  1
{\fSimSun|b0|i0|c134|p2;52}
 73
     1
 44
1.0
1001
ACAD
1000
MTEXTBEGIN
1070
    73
1070
     1
1070
    44
1040
1.0
1070
    74
1070
     0
1000
MTEXTEND
  0
MTEXT
  5
1F8
330
2
100
AcDbEntity
  8
0
370
    -3
100
AcDbMText
 10
7313.587884402784
 20
-5842.500182506277
 30
0.0
 40
3.75
 41
48.40135546935242
 71
     7
 72
     5
  1
{\fSimSun|b0|i0|c134|p2;38}
 73
     1
 44
1.0
1001
ACAD
1000
MTEXTBEGIN
1070
    73
1070
     1
1070
    44
1040
1.0
1070
    74
1070
     0
1000
MTEXTEND
  0
LINE
  5
1F9
330
2
100
AcDbEntity
  8
0
100
AcDbLine
 10
7364.514022170924
 20
-5728.314682375863
 30
0.0
 11
7364.514022170924
 21
-5739.047175750951
 31
0.0
  0
LINE
  5
1FA
330
2
100
AcDbEntity
  8
0
100
AcDbLine
 10
7364.514022170924
 20
-5739.047175750951
 30
0.0
 11
7364.514022170924
 21
-5814.047175750951
 31
0.0
  0
LINE
  5
1FB
330
2
100
AcDbEntity
  8
0
100
AcDbLine
 10
7364.514022170924
 20
-5814.047175750952
 30
0.0
 11
7364.514022170924
 21
-5865.382105943783
 31
0.0
  0
LINE
  5
1FC
330
2
100
AcDbEntity
  8
0
370
    -3
100
AcDbLine
 10
7227.886873122257
 20
-5754.047175750951
 30
0.0
 11
7364.514022170924
 21
-5754.047175750951
 31
0.0
  0
LINE
  5
1FD
330
2
100
AcDbEntity
  8
0
370
    -3
100
AcDbLine
 10
7227.886873122257
 20
-5746.547175750951
 30
0.0
 11
7364.514022170924
 21
-5746.547175750951
 31
0.0
  0
LINE
  5
1FE
330
2
100
AcDbEntity
  8
0
370
    -3
100
AcDbLine
 10
7227.886873122257
 20
-5858.464640847367
 30
0.0
 11
7364.514022170924
 21
-5858.464640847367
 31
0.0
  0
LINE
  5
1FF
330
2
100
AcDbEntity
  8
0
370
    -3
100
AcDbLine
 10
7227.886873122257
 20
-5865.382105943783
 30
0.0
 11
7364.514022170924
 21
-5865.382105943783
 31
0.0
  0
MTEXT
  5
200
330
2
100
AcDbEntity
  8
0
370
    -3
100
AcDbMText
 10
7255.715816983401
 20
-5752.815111796024
 30
0.0
 40
3.75
 41
24.11393081438792
 71
     7
 72
     5
  1
{\fSimSun|b0|i0|c134|p2;Pg9}
 73
     1
 44
1.0
1001
ACAD
1000
MTEXTBEGIN
1070
    73
1070
     1
1070
    44
1040
1.0
1070
    74
1070
     0
1000
MTEXTEND
  0
MTEXT
  5
201
330
2
100
AcDbEntity
  8
0
370
    -3
100
AcDbMText
 10
7285.764440825174
 20
-5752.052175276211
 30
0.0
 40
3.75
 41
48.40135546935242
 71
     7
 72
     5
  1
{\fSimSun|b0|i0|c134|p2;4.5}
 73
     1
 44
1.0
1001
ACAD
1000
MTEXTBEGIN
1070
    73
1070
     1
1070
    44
1040
1.0
1070
    74
1070
     0
1000
MTEXTEND
  0
MTEXT
  5
202
330
2
100
AcDbEntity
  8
0
370
    -3
100
AcDbMText
 10
7333.794903668877
 20
-5752.202489119799
 30
0.0
 40
3.75
 41
48.40135546935242
 71
     7
 72
     5
  1
{\fSimSun|b0|i0|c134|p2;DLM-PG9P}
 73
     1
 44
1.0
1001
ACAD
1000
MTEXTBEGIN
1070
    73
1070
     1
1070
    44
1040
1.0
1070
    74
1070
     0
1000
MTEXTEND
  0
MTEXT
  5
203
330
2
100
AcDbEntity
  8
0
370
    -3
100
AcDbMText
 10
7313.776745444477
 20
-5752.166395868631
 30
0.0
 40
3.75
 41
48.40135546935242
 71
     7
 72
     5
  1
{\fSimSun|b0|i0|c134|p2;22}
 73
     1
 44
1.0
1001
ACAD
1000
MTEXTBEGIN
1070
    73
1070
     1
1070
    44
1040
1.0
1070
    74
1070
     0
1000
MTEXTEND
  0
MTEXT
  5
204
330
2
100
AcDbEntity
  8
0
370
    -3
100
AcDbMText
 10
7255.715816983401
 20
-5745.315111796025
 30
0.0
 40
3.75
 41
24.11393081438792
 71
     7
 72
     5
  1
{\fSimSun|b0|i0|c134|p2;Pg7}
 73
     1
 44
1.0
1001
ACAD
1000
MTEXTBEGIN
1070
    73
1070
     1
1070
    44
1040
1.0
1070
    74
1070
     0
1000
MTEXTEND
  0
MTEXT
  5
205
330
2
100
AcDbEntity
  8
0
370
    -3
100
AcDbMText
 10
7285.764440825174
 20
-5744.55217527621
 30
0.0
 40
3.75
 41
48.40135546935242
 71
     7
 72
     5
  1
{\fSimSun|b0|i0|c134|p2;4.5}
 73
     1
 44
1.0
1001
ACAD
1000
MTEXTBEGIN
1070
    73
1070
     1
1070
    44
1040
1.0
1070
    74
1070
     0
1000
MTEXTEND
  0
MTEXT
  5
206
330
2
100
AcDbEntity
  8
0
370
    -3
100
AcDbMText
 10
7333.794903668877
 20
-5744.702489119799
 30
0.0
 40
3.75
 41
48.40135546935242
 71
     7
 72
     5
  1
{\fSimSun|b0|i0|c134|p2;DLM-PG7P}
 73
     1
 44
1.0
1001
ACAD
1000
MTEXTBEGIN
1070
    73
1070
     1
1070
    44
1040
1.0
1070
    74
1070
     0
1000
MTEXTEND
  0
MTEXT
  5
207
330
2
100
AcDbEntity
  8
0
370
    -3
100
AcDbMText
 10
7313.776745444477
 20
-5744.666395868631
 30
0.0
 40
3.75
 41
48.40135546935242
 71
     7
 72
     5
  1
{\fSimSun|b0|i0|c134|p2;18}
 73
     1
 44
1.0
1001
ACAD
1000
MTEXTBEGIN
1070
    73
1070
     1
1070
    44
1040
1.0
1070
    74
1070
     0
1000
MTEXTEND
  0
MTEXT
  5
208
330
2
100
AcDbEntity
  8
0
370
    -3
100
AcDbMText
 10
7231.211504449297
 20
-5815.966680855068
 30
0.0
 40
3.75
 41
24.11393081438792
 71
     1
 72
     5
  1
{\fSimSun|b0|i0|c134|p2;M16x1.5}
 73
     1
 44
1.0
1001
ACAD
1000
MTEXTBEGIN
1070
    73
1070
     1
1070
    44
1040
1.0
1070
    74
1070
     0
1000
MTEXTEND
  0
MTEXT
  5
209
330
2
100
AcDbEntity
  8
0
370
    -3
100
AcDbMText
 10
7285.877665729849
 20
-5815.929817338714
 30
0.0
 40
3.75
 41
48.40135546935242
 71
     1
 72
     5
  1
{\fSimSun|b0|i0|c134|p2;5.0}
 73
     1
 44
1.0
1001
ACAD
1000
MTEXTBEGIN
1070
    73
1070
     1
1070
    44
1040
1.0
1070
    74
1070
     0
1000
MTEXTEND
  0
MTEXT
  5
20A
330
2
100
AcDbEntity
  8
0
370
    -3
100
AcDbMText
 10
7333.877655469139
 20
-5816.181916292705
 30
0.0
 40
3.75
 41
48.40135546935242
 71
     1
 72
     5
  1
{\fSimSun|b0|i0|c134|p2;DLM-M16P}
 73
     1
 44
1.0
1001
ACAD
1000
MTEXTBEGIN
1070
    73
1070
     1
1070
    44
1040
1.0
1070
    74
1070
     0
1000
MTEXTEND
  0
MTEXT
  5
20B
330
2
100
AcDbEntity
  8
0
370
    -3
100
AcDbMText
 10
7313.701109307463
 20
-5815.893970833173
 30
0.0
 40
3.75
 41
48.40135546935242
 71
     1
 72
     5
  1
{\fSimSun|b0|i0|c134|p2;22}
 73
     1
 44
1.0
1001
ACAD
1000
MTEXTBEGIN
1070
    73
1070
     1
1070
    44
1040
1.0
1070
    74
1070
     0
1000
MTEXTEND
  0
MTEXT
  5
20C
330
2
100
AcDbEntity
  8
0
370
    -3
100
AcDbMText
 10
7231.211504449297
 20
-5808.466680855069
 30
0.0
 40
3.75
 41
24.11393081438792
 71
     1
 72
     5
  1
{\fSimSun|b0|i0|c134|p2;M12x1.5}
 73
     1
 44
1.0
1001
ACAD
1000
MTEXTBEGIN
1070
    73
1070
     1
1070
    44
1040
1.0
1070
    74
1070
     0
1000
MTEXTEND
  0
MTEXT
  5
20D
330
2
100
AcDbEntity
  8
0
370
    -3
100
AcDbMText
 10
7285.877665729849
 20
-5808.429817338714
 30
0.0
 40
3.75
 41
48.40135546935242
 71
     1
 72
     5
  1
{\fSimSun|b0|i0|c134|p2;4.5}
 73
     1
 44
1.0
1001
ACAD
1000
MTEXTBEGIN
1070
    73
1070
     1
1070
    44
1040
1.0
1070
    74
1070
     0
1000
MTEXTEND
  0
MTEXT
  5
20E
330
2
100
AcDbEntity
  8
0
370
    -3
100
AcDbMText
 10
7333.807129133162
 20
-5808.470504538911
 30
0.0
 40
3.75
 41
48.40135546935242
 71
     1
 72
     5
  1
{\fSimSun|b0|i0|c134|p2;DLM-M12P}
 73
     1
 44
1.0
1001
ACAD
1000
MTEXTBEGIN
1070
    73
1070
     1
1070
    44
1040
1.0
1070
    74
1070
     0
1000
MTEXTEND
  0
MTEXT
  5
20F
330
2
100
AcDbEntity
  8
0
370
    -3
100
AcDbMText
 10
7313.701109307463
 20
-5808.393970833176
 30
0.0
 40
3.75
 41
48.40135546935242
 71
     1
 72
     5
  1
{\fSimSun|b0|i0|c134|p2;18}
 73
     1
 44
1.0
1001
ACAD
1000
MTEXTBEGIN
1070
    73
1070
     1
1070
    44
1040
1.0
1070
    74
1070
     0
1000
MTEXTEND
  0
ENDSEC
  0
SECTION
  2
OBJECTS
  0
DICTIONARY
  5
B
330
0
100
AcDbDictionary
281
     1
  3
ACAD_2007HEADERVARS_RT
350
24B
  3
ACAD_COLOR
350
3F
  3
ACAD_GROUP
350
3A
  3
ACAD_LAYOUT
350
11
  3
ACAD_MATERIAL
350
D
  3
ACAD_MLINESTYLE
350
3B
  3
ACAD_PLOTSETTINGS
350
3C
  3
ACAD_PLOTSTYLENAME
350
A
  3
ACAD_TABLESTYLE
350
40
  3
ACAD_VISUALSTYLE
350
27
  3
AcDbVariableDictionary
350
218
  3
DWGPROPS
350
24A
  3
lxx_dict
350
244
  0
DICTIONARY
  5
2B
330
24
100
AcDbDictionary
280
     1
281
     1
  0
DICTIONARY
  5
1A
330
19
100
AcDbDictionary
280
     1
281
     1
  3
ACAD_LAYERSTATES
360
1B
  0
DICTIONARY
  5
7
330
6
100
AcDbDictionary
280
     1
281
     1
  3
ADSK_XREC_LAYER_RECONCILED
360
8
  0
DICTIONARY
  5
42
330
41
100
AcDbDictionary
280
     1
281
     1
  3
ADSK_XREC_LAYER_RECONCILED
360
43
  0
DICTIONARY
  5
3
330
2
100
AcDbDictionary
280
     1
281
     1
  3
ACAD_SORTENTS
360
210
  0
DICTIONARY
  5
24B
102
{ACAD_REACTORS
330
B
102
}
330
B
100
AcDbDictionary
281
     1
  3
DIMFXL
350
24C
  3
DIMJOGANG
350
24D
  3
DIMLTEX1
350
24F
  3
DIMLTEX2
350
250
  3
DIMLTYPE
350
24E
  0
DICTIONARY
  5
3F
102
{ACAD_REACTORS
330
B
102
}
330
B
100
AcDbDictionary
281
     1
  0
DICTIONARY
  5
3A
102
{ACAD_REACTORS
330
B
102
}
330
B
100
AcDbDictionary
281
     1
  0
DICTIONARY
  5
11
102
{ACAD_REACTORS
330
B
102
}
330
B
100
AcDbDictionary
281
     1
  3
Model
350
10
  3
布局1
350
16
  0
DICTIONARY
  5
D
102
{ACAD_REACTORS
330
B
102
}
330
B
100
AcDbDictionary
281
     1
  3
ByBlock
350
3E
  3
ByLayer
350
3D
  3
Global
350
C
  0
DICTIONARY
  5
3B
102
{ACAD_REACTORS
330
B
102
}
330
B
100
AcDbDictionary
281
     1
  3
STANDARD
350
44
  0
DICTIONARY
  5
3C
102
{ACAD_REACTORS
330
B
102
}
330
B
100
AcDbDictionary
281
     1
  0
ACDBDICTIONARYWDFLT
  5
A
102
{ACAD_REACTORS
330
B
102
}
330
B
100
AcDbDictionary
281
     1
  3
Normal
350
9
100
AcDbDictionaryWithDefault
340
9
  0
DICTIONARY
  5
40
102
{ACAD_REACTORS
330
B
102
}
330
B
100
AcDbDictionary
281
     1
  3
Standard
350
45
  0
DICTIONARY
  5
27
102
{ACAD_REACTORS
330
B
102
}
330
B
100
AcDbDictionary
281
     1
  3
2dWireframe
350
26
  3
3D Hidden
350
236
  3
3dWireframe
350
47
  3
Basic
350
235
  3
Brighten
350
239
  3
ColorChange
350
23D
  3
Conceptual
350
237
  3
Dim
350
238
  3
Facepattern
350
23C
  3
Flat
350
231
  3
FlatWithEdges
350
232
  3
Gouraud
350
233
  3
GouraudWithEdges
350
234
  3
Linepattern
350
23B
  3
Realistic
350
46
  3
Thicken
350
23A
  0
DICTIONARY
  5
218
102
{ACAD_REACTORS
330
B
102
}
330
B
100
AcDbDictionary
281
     1
  3
CTABLESTYLE
350
219
  3
DIMASSOC
350
249
  3
HIDETEXT
350
248
  3
INDEXCTL
350
247
  3
SORTENTS
350
246
  0
XRECORD
  5
24A
102
{ACAD_REACTORS
330
B
102
}
330
B
100
AcDbXrecord
280
     1
  1
DWGPROPS COOKIE
  2

  3

  4

  6

  7

  8
adminstartor
  9

300
=
301
=
302
=
303
=
304
=
305
=
306
=
307
=
308
=
309
=
 40
7.334087175925925
 41
2457035.581452037
 42
2459010.604254259
  1

 90
        0
  0
DICTIONARY
  5
244
102
{ACAD_REACTORS
330
B
102
}
330
B
100
AcDbDictionary
281
     1
  3
lxx_dimth
350
245
  0
DICTIONARY
  5
1B
102
{ACAD_REACTORS
330
1A
102
}
330
1A
100
AcDbDictionary
281
     1
  0
XRECORD
  5
8
102
{ACAD_REACTORS
330
7
102
}
330
7
100
AcDbXrecord
280
     1
290
     1
  0
XRECORD
  5
43
102
{ACAD_REACTORS
330
42
102
}
330
42
100
AcDbXrecord
280
     1
290
     1
  0
SORTENTSTABLE
  5
210
102
{ACAD_REACTORS
330
3
102
}
330
3
100
AcDbSortentsTable
330
2
  0
XRECORD
  5
24C
102
{ACAD_REACTORS
330
24B
102
}
330
24B
100
AcDbXrecord
280
     1
 40
0.1
  0
XRECORD
  5
24D
102
{ACAD_REACTORS
330
24B
102
}
330
24B
100
AcDbXrecord
280
     1
 40
1.570796326794896
  0
XRECORD
  5
24F
102
{ACAD_REACTORS
330
24B
102
}
330
24B
100
AcDbXrecord
280
     1
340
21
  0
XRECORD
  5
250
102
{ACAD_REACTORS
330
24B
102
}
330
24B
100
AcDbXrecord
280
     1
340
21
  0
XRECORD
  5
24E
102
{ACAD_REACTORS
330
24B
102
}
330
24B
100
AcDbXrecord
280
     1
340
21
  0
LAYOUT
  5
10
102
{ACAD_XDICTIONARY
360
251
102
}
102
{ACAD_REACTORS
330
11
102
}
330
11
100
AcDbPlotSettings
  1

  2
HP LaserJet 1020.pc3
  4
A4
  6

 40
4.773083209991455
 41
4.942401409149169
 42
6.33941650390625
 43
4.7730712890625
 44
210.0156707763672
 45
297.0106506347656
 46
0.0
 47
7.432708775900406
 48
7647.249939314105
 49
-6212.941196350491
140
7934.878976587225
141
-6002.940910322744
142
1.0
143
1.05579154372452
 70
  3252
 72
     1
 73
     1
 74
     4
  7
yanxiu.ctb
 75
     0
147
0.9471566673780076
148
-7647.249939314105
149
6212.941196350491
100
AcDbLayout
  1
Model
 70
     1
 71
     0
 10
0.0
 20
0.0
 11
12.0
 21
9.0
 12
0.0
 22
0.0
 32
0.0
 14
0.0
 24
0.0
 34
0.0
 15
0.0
 25
0.0
 35
0.0
146
0.0
 13
0.0
 23
0.0
 33
0.0
 16
1.0
 26
0.0
 36
0.0
 17
0.0
 27
1.0
 37
0.0
 76
     0
330
2
331
25
1001
ACAD_PSEXT
1000
HP LaserJet 1020.pc3
1000
HP LaserJet 1020
1000
\\192.168.0.47
1000

1070
     0
  0
LAYOUT
  5
16
102
{ACAD_XDICTIONARY
360
17
102
}
102
{ACAD_REACTORS
330
11
102
}
330
11
100
AcDbPlotSettings
  1

  2
Microsoft XPS Document Writer
  4
A4
  6

 40
3.174999952316283
 41
3.174999952316283
 42
3.175003051757812
 43
3.17498779296875
 44
210.0156707763672
 45
297.0106506347656
 46
0.0
 47
0.0
 48
0.0
 49
0.0
140
0.0
141
0.0
142
1.0
143
26.19157966028825
 70
   688
 72
     0
 73
     1
 74
     1
  7
yanxiu.ctb
 75
     0
147
0.0381802095547602
148
0.2302009418498301
149
0.1627683427213583
100
AcDbLayout
  1
布局1
 70
     1
 71
     1
 10
-3.282997899284788
 20
-3.280355610835618
 11
302.9838570634912
 21
213.2803597847586
 12
0.0
 22
0.0
 32
0.0
 14
-0.0090630292066862
 24
-0.0064082024693448
 34
-0.0015258207003583
 15
297.0090644122207
 25
210.0064091803581
 35
0.0000000349246037
146
0.0
 13
0.0
 23
0.0
 33
0.0
 16
1.0
 26
0.0
 36
0.0
 17
0.0
 27
1.0
 37
0.0
 76
     0
330
13
1001
ACAD_PSEXT
1000
Microsoft XPS Document Writer
1000
Microsoft XPS Document Writer
1000
XPSPort:
1000

1070
     0
  0
MATERIAL
  5
3E
102
{ACAD_XDICTIONARY
360
228
102
}
102
{ACAD_REACTORS
330
D
102
}
330
D
100
AcDbMaterial
  1
ByBlock
  0
MATERIAL
  5
3D
102
{ACAD_XDICTIONARY
360
226
102
}
102
{ACAD_REACTORS
330
D
102
}
330
D
100
AcDbMaterial
  1
ByLayer
  0
MATERIAL
  5
C
102
{ACAD_XDICTIONARY
360
220
102
}
102
{ACAD_REACTORS
330
D
102
}
330
D
100
AcDbMaterial
  1
Global
 72
     0
 73
     2
 43
0.0208333333333333
 43
0.0
 43
0.0
 43
0.0
 43
0.0
 43
0.0208333333333333
 43
0.0
 43
0.0
 43
0.0
 43
0.0
 43
1.0
 43
0.0
 43
0.0
 43
0.0
 43
0.0
 43
1.0
 77
     0
 78
     2
 47
0.0208333333333333
 47
0.0
 47
0.0
 47
0.0
 47
0.0
 47
0.0208333333333333
 47
0.0
 47
0.0
 47
0.0
 47
0.0
 47
1.0
 47
0.0
 47
0.0
 47
0.0
 47
0.0
 47
1.0
171
     0
172
     2
 49
0.0208333333333333
 49
0.0
 49
0.0
 49
0.0
 49
0.0
 49
0.0208333333333333
 49
0.0
 49
0.0
 49
0.0
 49
0.0
 49
1.0
 49
0.0
 49
0.0
 49
0.0
 49
0.0
 49
1.0
175
     0
176
     2
142
0.0208333333333333
142
0.0
142
0.0
142
0.0
142
0.0
142
0.0208333333333333
142
0.0
142
0.0
142
0.0
142
0.0
142
1.0
142
0.0
142
0.0
142
0.0
142
0.0
142
1.0
179
     0
270
     2
144
0.0208333333333333
144
0.0
144
0.0
144
0.0
144
0.0
144
0.0208333333333333
144
0.0
144
0.0
144
0.0
144
0.0
144
1.0
144
0.0
144
0.0
144
0.0
144
0.0
144
1.0
274
     2
147
0.0208333333333333
147
0.0
147
0.0
147
0.0
147
0.0
147
0.0208333333333333
147
0.0
147
0.0
147
0.0
147
0.0
147
1.0
147
0.0
147
0.0
147
0.0
147
0.0
147
1.0
  0
MLINESTYLE
  5
44
102
{ACAD_REACTORS
330
3B
102
}
330
3B
100
AcDbMlineStyle
  2
STANDARD
 70
     0
  3

 62
   256
 51
90.0
 52
90.0
 71
     2
 49
0.5
 62
   256
  6
BYLAYER
 49
-0.5
 62
   256
  6
BYLAYER
  0
ACDBPLACEHOLDER
  5
9
102
{ACAD_REACTORS
330
A
102
}
330
A
  0
TABLESTYLE
  5
45
102
{ACAD_XDICTIONARY
360
254
102
}
102
{ACAD_REACTORS
330
40
102
}
330
40
100
AcDbTableStyle
  3
Standard
 70
     0
 71
     0
 40
0.06
 41
0.06
280
     0
281
     0
  7
STANDARD
140
0.18
170
     2
 62
     0
 63
     7
283
     0
274
    -2
284
     1
 64
     0
275
    -2
285
     1
 65
     0
276
    -2
286
     1
 66
     0
277
    -2
287
     1
 67
     0
278
    -2
288
     1
 68
     0
279
    -2
289
     1
 69
     0
  7
STANDARD
140
0.25
170
     5
 62
     0
 63
     7
283
     0
274
    -2
284
     1
 64
     0
275
    -2
285
     1
 65
     0
276
    -2
286
     1
 66
     0
277
    -2
287
     1
 67
     0
278
    -2
288
     1
 68
     0
279
    -2
289
     1
 69
     0
  7
STANDARD
140
0.18
170
     5
 62
     0
 63
     7
283
     0
274
    -2
284
     1
 64
     0
275
    -2
285
     1
 65
     0
276
    -2
286
     1
 66
     0
277
    -2
287
     1
 67
     0
278
    -2
288
     1
 68
     0
279
    -2
289
     1
 69
     0
  0
VISUALSTYLE
  5
26
102
{ACAD_XDICTIONARY
360
28
102
}
102
{ACAD_REACTORS
330
27
102
}
330
27
100
AcDbVisualStyle
  2
2dWireframe
 70
     4
 71
     0
 72
     2
 73
     0
 90
        0
 40
-0.6
 41
-30.0
 62
     5
 63
     7
 74
     1
 91
        4
 64
     7
 65
   257
 75
     1
175
     1
 42
1.0
 92
        0
 66
   257
 43
1.0
 76
     1
 77
     6
 78
     2
 67
     7
 79
     5
170
     0
171
     0
290
     0
174
     0
 93
        1
 44
0.0
173
     0
291
     0
 45
0.0
1001
ACAD
1000
AcDbSavedByObjectVersion
1070
     0
1000
AcDbSavedByObjectVersion
1070
     0
  0
VISUALSTYLE
  5
236
102
{ACAD_REACTORS
330
27
102
}
330
27
100
AcDbVisualStyle
  2
3D Hidden
 70
     6
 71
     1
 72
     2
 73
     2
 90
        0
 40
-0.6
 41
-30.0
 62
     5
 63
     7
 74
     2
 91
        2
 64
     7
 65
   257
 75
     2
175
     1
 42
40.0
 92
        0
 66
   257
 43
1.0
 76
     1
 77
     6
 78
     2
 67
     7
 79
     3
170
     0
171
     0
290
     0
174
     0
 93
        1
 44
0.0
173
     0
291
     0
 45
0.0
1001
ACAD
1000
AcDbSavedByObjectVersion
1070
     0
  0
VISUALSTYLE
  5
47
102
{ACAD_REACTORS
330
27
102
}
330
27
100
AcDbVisualStyle
  2
3dWireframe
 70
     5
 71
     0
 72
     2
 73
     0
 90
        0
 40
-0.6
 41
-30.0
 62
     5
 63
     7
 74
     1
 91
        4
 64
     7
 65
   257
 75
     1
175
     1
 42
1.0
 92
        0
 66
   257
 43
1.0
 76
     1
 77
     6
 78
     2
 67
     7
 79
     5
170
     0
171
     0
290
     0
174
     0
 93
        1
 44
0.0
173
     0
291
     0
 45
0.0
1001
ACAD
1000
AcDbSavedByObjectVersion
1070
     0
1000
AcDbSavedByObjectVersion
1070
     0
  0
VISUALSTYLE
  5
235
102
{ACAD_REACTORS
330
27
102
}
330
27
100
AcDbVisualStyle
  2
Basic
 70
     7
 71
     1
 72
     0
 73
     1
 90
        0
 40
-0.6
 41
-30.0
 62
     5
 63
     7
 74
     0
 91
        4
 64
     7
 65
   257
 75
     1
175
     1
 42
1.0
 92
        8
 66
     7
 43
1.0
 76
     1
 77
     6
 78
     2
 67
     7
 79
     5
170
     0
171
     0
290
     0
174
     0
 93
        1
 44
0.0
173
     0
291
     1
 45
0.0
1001
ACAD
1000
AcDbSavedByObjectVersion
1070
     0
  0
VISUALSTYLE
  5
239
102
{ACAD_REACTORS
330
27
102
}
330
27
100
AcDbVisualStyle
  2
Brighten
 70
    12
 71
     2
 72
     2
 73
     0
 90
        0
 40
-0.6
 41
-30.0
 62
     5
 63
     7
 74
     1
 91
        4
 64
     7
 65
   257
 75
     1
175
     1
 42
1.0
 92
        8
 66
     7
 43
1.0
 76
     1
 77
     6
 78
     2
 67
     7
 79
     5
170
     0
171
     0
290
     0
174
     0
 93
        1
 44
50.0
173
     0
291
     1
 45
0.0
1001
ACAD
1000
AcDbSavedByObjectVersion
1070
     0
  0
VISUALSTYLE
  5
23D
102
{ACAD_REACTORS
330
27
102
}
330
27
100
AcDbVisualStyle
  2
ColorChange
 70
    16
 71
     2
 72
     2
 73
     3
 90
        0
 40
-0.6
 41
-30.0
 62
     5
 63
     8
 74
     1
 91
        4
 64
     7
 65
   257
 75
     1
175
     1
 42
1.0
 92
        8
 66
     8
 43
1.0
 76
     1
 77
     6
 78
     2
 67
     7
 79
     5
170
     0
171
     0
290
     0
174
     0
 93
        1
 44
0.0
173
     0
291
     1
 45
0.0
1001
ACAD
1000
AcDbSavedByObjectVersion
1070
     0
  0
VISUALSTYLE
  5
237
102
{ACAD_REACTORS
330
27
102
}
330
27
100
AcDbVisualStyle
  2
Conceptual
 70
     9
 71
     3
 72
     2
 73
     0
 90
        0
 40
-0.6
 41
-30.0
 62
     5
 63
     7
 74
     2
 91
        2
 64
     7
 65
   257
 75
     1
175
     1
 42
40.0
 92
        8
 66
     7
 43
1.0
 76
     1
 77
     6
 78
     2
 67
     7
 79
     3
170
     0
171
     0
290
     0
174
     0
 93
        1
 44
0.0
173
     0
291
     0
 45
0.0
1001
ACAD
1000
AcDbSavedByObjectVersion
1070
     0
  0
VISUALSTYLE
  5
238
102
{ACAD_REACTORS
330
27
102
}
330
27
100
AcDbVisualStyle
  2
Dim
 70
    11
 71
     2
 72
     2
 73
     0
 90
        0
 40
-0.6
 41
-30.0
 62
     5
 63
     7
 74
     1
 91
        4
 64
     7
 65
   257
 75
     1
175
     1
 42
1.0
 92
        8
 66
     7
 43
1.0
 76
     1
 77
     6
 78
     2
 67
     7
 79
     5
170
     0
171
     0
290
     0
174
     0
 93
        1
 44
-50.0
173
     0
291
     1
 45
0.0
1001
ACAD
1000
AcDbSavedByObjectVersion
1070
     0
  0
VISUALSTYLE
  5
23C
102
{ACAD_REACTORS
330
27
102
}
330
27
100
AcDbVisualStyle
  2
Facepattern
 70
    15
 71
     2
 72
     2
 73
     0
 90
        0
 40
-0.6
 41
-30.0
 62
     5
 63
     7
 74
     1
 91
        4
 64
     7
 65
   257
 75
     1
175
     1
 42
1.0
 92
        8
 66
     7
 43
1.0
 76
     1
 77
     6
 78
     2
 67
     7
 79
     5
170
     0
171
     0
290
     0
174
     0
 93
        1
 44
0.0
173
     0
291
     1
 45
0.0
1001
ACAD
1000
AcDbSavedByObjectVersion
1070
     0
  0
VISUALSTYLE
  5
231
102
{ACAD_REACTORS
330
27
102
}
330
27
100
AcDbVisualStyle
  2
Flat
 70
     0
 71
     2
 72
     1
 73
     1
 90
        2
 40
-0.6
 41
30.0
 62
     5
 63
     7
 74
     0
 91
        4
 64
     7
 65
   257
 75
     1
175
     1
 42
1.0
 92
        8
 66
     7
 43
1.0
 76
     1
 77
     6
 78
     2
 67
     7
 79
     5
170
     0
171
     0
290
     0
174
     0
 93
       13
 44
0.0
173
     0
291
     1
 45
0.0
1001
ACAD
1000
AcDbSavedByObjectVersion
1070
     0
  0
VISUALSTYLE
  5
232
102
{ACAD_REACTORS
330
27
102
}
330
27
100
AcDbVisualStyle
  2
FlatWithEdges
 70
     1
 71
     2
 72
     1
 73
     1
 90
        2
 40
-0.6
 41
30.0
 62
     5
 63
     7
 74
     1
 91
        4
 64
     7
 65
   257
 75
     1
175
     1
 42
1.0
 92
        0
 66
   257
 43
1.0
 76
     1
 77
     6
 78
     2
 67
     7
 79
     5
170
     0
171
     0
290
     0
174
     0
 93
       13
 44
0.0
173
     0
291
     1
 45
0.0
1001
ACAD
1000
AcDbSavedByObjectVersion
1070
     0
  0
VISUALSTYLE
  5
233
102
{ACAD_REACTORS
330
27
102
}
330
27
100
AcDbVisualStyle
  2
Gouraud
 70
     2
 71
     2
 72
     2
 73
     1
 90
        2
 40
-0.6
 41
30.0
 62
     5
 63
     7
 74
     0
 91
        4
 64
     7
 65
   257
 75
     1
175
     1
 42
1.0
 92
        0
 66
     7
 43
1.0
 76
     1
 77
     6
 78
     2
 67
     7
 79
     5
170
     0
171
     0
290
     0
174
     0
 93
       13
 44
0.0
173
     0
291
     1
 45
0.0
1001
ACAD
1000
AcDbSavedByObjectVersion
1070
     0
  0
VISUALSTYLE
  5
234
102
{ACAD_REACTORS
330
27
102
}
330
27
100
AcDbVisualStyle
  2
GouraudWithEdges
 70
     3
 71
     2
 72
     2
 73
     1
 90
        2
 40
-0.6
 41
30.0
 62
     5
 63
     7
 74
     1
 91
        4
 64
     7
 65
   257
 75
     1
175
     1
 42
1.0
 92
        0
 66
   257
 43
1.0
 76
     1
 77
     6
 78
     2
 67
     7
 79
     5
170
     0
171
     0
290
     0
174
     0
 93
       13
 44
0.0
173
     0
291
     1
 45
0.0
1001
ACAD
1000
AcDbSavedByObjectVersion
1070
     0
  0
VISUALSTYLE
  5
23B
102
{ACAD_REACTORS
330
27
102
}
330
27
100
AcDbVisualStyle
  2
Linepattern
 70
    14
 71
     2
 72
     2
 73
     0
 90
        0
 40
-0.6
 41
-30.0
 62
     5
 63
     7
 74
     1
 91
        4
 64
     7
 65
   257
 75
     7
175
     7
 42
1.0
 92
        8
 66
     7
 43
1.0
 76
     1
 77
     6
 78
     2
 67
     7
 79
     5
170
     0
171
     0
290
     0
174
     0
 93
        1
 44
0.0
173
     0
291
     1
 45
0.0
1001
ACAD
1000
AcDbSavedByObjectVersion
1070
     0
  0
VISUALSTYLE
  5
46
102
{ACAD_REACTORS
330
27
102
}
330
27
100
AcDbVisualStyle
  2
Realistic
 70
     8
 71
     2
 72
     2
 73
     0
 90
        0
 40
-0.6
 41
-30.0
 62
     5
 63
     7
 74
     1
 91
        0
 64
     7
 65
   257
 75
     1
175
     1
 42
1.0
 92
        8
 66
     8
 43
1.0
 76
     1
 77
     6
 78
     2
 67
     7
 79
     5
170
     0
171
     0
290
     0
174
     0
 93
       13
 44
0.0
173
     0
291
     0
 45
0.0
1001
ACAD
1000
AcDbSavedByObjectVersion
1070
     0
1000
AcDbSavedByObjectVersion
1070
     0
  0
VISUALSTYLE
  5
23A
102
{ACAD_REACTORS
330
27
102
}
330
27
100
AcDbVisualStyle
  2
Thicken
 70
    13
 71
     2
 72
     2
 73
     0
 90
        0
 40
-0.6
 41
-30.0
 62
     5
 63
     7
 74
     1
 91
        4
 64
     7
 65
   257
 75
     1
175
     1
 42
1.0
 92
       12
 66
     7
 43
1.0
 76
     1
 77
     6
 78
     2
 67
     7
 79
     5
170
     0
171
     0
290
     0
174
     0
 93
        1
 44
0.0
173
     0
291
     1
 45
0.0
1001
ACAD
1000
AcDbSavedByObjectVersion
1070
     0
  0
DICTIONARYVAR
  5
219
102
{ACAD_REACTORS
330
218
102
}
330
218
100
DictionaryVariables
280
     0
  1
STANDARD
  0
DICTIONARYVAR
  5
249
102
{ACAD_REACTORS
330
218
102
}
330
218
100
DictionaryVariables
280
     0
  1
1
  0
DICTIONARYVAR
  5
248
102
{ACAD_REACTORS
330
218
102
}
330
218
100
DictionaryVariables
280
     0
  1
1
  0
DICTIONARYVAR
  5
247
102
{ACAD_REACTORS
330
218
102
}
330
218
100
DictionaryVariables
280
     0
  1
0
  0
DICTIONARYVAR
  5
246
102
{ACAD_REACTORS
330
218
102
}
330
218
100
DictionaryVariables
280
     0
  1
127
  0
VLO-VL
  5
245
102
{ACAD_REACTORS
330
244
102
}
330
244
100
vlo_VL
 90
   -64512
 91
       12
 92
        1
 40
2.5
300
(&VLO-R . 0)
  0
DICTIONARY
  5
251
330
10
100
AcDbDictionary
280
     1
281
     1
  3
ACAD_XREC_ROUNDTRIP
360
252
  0
DICTIONARY
  5
17
330
16
100
AcDbDictionary
280
     1
281
     1
  3
ACAD_XREC_ROUNDTRIP
360
253
  3
ADSK_XREC_LAYOUTTHUMBNAIL
360
18
  0
DICTIONARY
  5
228
330
3E
100
AcDbDictionary
280
     1
281
     1
  3
ACAD_XREC_ROUNDTRIP
360
229
  0
DICTIONARY
  5
226
330
3D
100
AcDbDictionary
280
     1
281
     1
  3
ACAD_XREC_ROUNDTRIP
360
227
  0
DICTIONARY
  5
220
330
C
100
AcDbDictionary
280
     1
281
     1
  3
ACAD_XREC_ROUNDTRIP
360
221
  0
DICTIONARY
  5
254
330
45
100
AcDbDictionary
280
     1
281
     1
  3
ACAD_XREC_ROUNDTRIP
360
255
  0
DICTIONARY
  5
28
330
26
100
AcDbDictionary
280
     1
281
     1
  3
ACAD_XREC_ROUNDTRIP
360
29
  0
XRECORD
  5
252
102
{ACAD_REACTORS
330
251
102
}
330
251
100
AcDbXrecord
280
     1
102
SHADEPLOT
 70
     0
102
SHADEPLOTRESLEVEL
 70
     2
102
SHADEPLOTCUSTOMDPI
 70
   300
  0
XRECORD
  5
253
102
{ACAD_REACTORS
330
17
102
}
330
17
100
AcDbXrecord
280
     1
102
SHADEPLOT
 70
     0
102
SHADEPLOTRESLEVEL
 70
     2
102
SHADEPLOTCUSTOMDPI
 70
   300
  0
XRECORD
  5
18
102
{ACAD_REACTORS
330
17
102
}
330
17
100
AcDbXrecord
280
     1
310
28000000B40000007F00000001000800000000004C59000000000000000000000001000000000000FFFFFF0000000000FFFFFF000000000000000000000000000000000000000000000000000000000000000000330000006600000099000000CC000000FF00000000330000333300006633000099330000CC330000FF3300
310
0000660000336600006666000099660000CC660000FF66000000990000339900006699000099990000CC990000FF99000000CC000033CC000066CC000099CC0000CCCC0000FFCC000000FF000033FF000066FF000099FF0000CCFF0000FFFF000000003300330033006600330099003300CC003300FF003300003333003333
310
33006633330099333300CC333300FF33330000663300336633006666330099663300CC663300FF66330000993300339933006699330099993300CC993300FF99330000CC330033CC330066CC330099CC3300CCCC3300FFCC330000FF330033FF330066FF330099FF3300CCFF3300FFFF330000006600330066006600660099
310
006600CC006600FF00660000336600333366006633660099336600CC336600FF33660000666600336666006666660099666600CC666600FF66660000996600339966006699660099996600CC996600FF99660000CC660033CC660066CC660099CC6600CCCC6600FFCC660000FF660033FF660066FF660099FF6600CCFF6600
310
FFFF660000009900330099006600990099009900CC009900FF00990000339900333399006633990099339900CC339900FF33990000669900336699006666990099669900CC669900FF66990000999900339999006699990099999900CC999900FF99990000CC990033CC990066CC990099CC9900CCCC9900FFCC990000FF99
310
0033FF990066FF990099FF9900CCFF9900FFFF99000000CC003300CC006600CC009900CC00CC00CC00FF00CC000033CC003333CC006633CC009933CC00CC33CC00FF33CC000066CC003366CC006666CC009966CC00CC66CC00FF66CC000099CC003399CC006699CC009999CC00CC99CC00FF99CC0000CCCC0033CCCC0066CC
310
CC0099CCCC00CCCCCC00FFCCCC0000FFCC0033FFCC0066FFCC0099FFCC00CCFFCC00FFFFCC000000FF003300FF006600FF009900FF00CC00FF00FF00FF000033FF003333FF006633FF009933FF00CC33FF00FF33FF000066FF003366FF006666FF009966FF00CC66FF00FF66FF000099FF003399FF006699FF009999FF00CC
310
99FF00FF99FF0000CCFF0033CCFF0066CCFF0099CCFF00CCCCFF00FFCCFF0000FFFF0033FFFF0066FFFF0099FFFF00CCFFFF00FFFFFF00000000000D0D0D001A1A1A00282828003535350043434300505050005D5D5D006B6B6B00787878008686860093939300A1A1A100AEAEAE00BBBBBB00C9C9C900D6D6D600E4E4E400
310
F1F1F100FFFFFF0000000000000000000000000000000000000000000000000000000000000000000000000000000000E2E2E2E2E2E2E2E2E2E2E2E2E2E2E2E2E2E2E2E2E2E2E2E2E2E2E2E2E2E2E2E2E2E2E2E2E2E2E2E2E2E2E2E2E2E2E2E2E2E2E2E2E2E2E2E2E2E2E2E2E2E2E2E2E2E2E2E2E2E2E2E2E2E2E2E2E2E2E2
310
E2E2E2E2E2E2E2E2E2E2E2E2E2E2E2E2E2E2E2E2E2E2E2E2E2E2E2E2E2E2E2E2E2E2E2E2E2E2E2E2E2E2E2E2E2E2E2E2E2E2E2E2E2E2E2E2E2E2E2E2E2E2E2E2E2E2E2E2E2E2E2E2E2E2E2E2E2E2E2E2E2E2E2E2E2E2E2E2E2E2E2E2E2E2E2E2E2E2E2E2EFE2F5F5F5F5F5F5F5F5F5F5F5F5F5F5F5F5F5F5F5F5F5F5F5F5F5
310
F5F5F5F5F5F5F5F5F5F5F5F5F5F5F5F5F5F5F5F5F5F5F5F5F5F5F5F5F5F5F5F5F5F5F5F5F5F5F5F5F5F5F5F5F5F5F5F5F5F5F5F5F5F5F5F5F5F5F5F5F5F5F5F5F5F5F5F5F5F5F5F5F5F5F5F5F5F5F5F5F5F5F5F5F5F5F5F5F5F5F5F5F5F5F5F5F5F5F5F5F5F5F5F5F5F5F5F5F5F5F5F5F5F5F5F5F5F5F5F5F5F5F5F5F5F5F5
310
F5F5F5F5F5F5F5F5F5F5F5F5F5F5F5F5F5F5F5F5F5F5F5F5E2E2EFE2F5E2E2E2E2E2E2E2E2F5F5F5F5F5F5F5F5F5E2E2E2E2E2E2E2E2E2E2E2E2E2E2E2E2F5F5F5F5F5F5F5F5F5E2E2E2E2E2E2E2E2E2E2E2E2E2E2E2E2F5F5F5F5F5F5F5F5F5E2E2E2E2E2E2E2E2E2E2E2E2E2E2E2E2F5F5F5F5F5F5F5F5E2E2E2E2E2E2E2
310
E2E2E2E2E2E2E2E2E2F5F5F5F5F5F5F5F5F5E2E2E2E2E2E2E2E2E2E2E2E2E2E2E2E2F5F5F5F5F5F5F5F5F5E2E2E2E2E2E2E2E2E2E2E2E2E2E2E2E2F5F5F5F5F5F5F5F5F5E2E2E2E2E2E2E2E2F5E2E2EFE2F5E2F5F5F5F5F5F5F5F5F5F5F5F5F5F5F5F5F5F5F5F5F5F5F5F5F5F5F5F5F5F5F5F5F5F5F5F5F5F5F5F5F5F5F5F5
310
F5F5F5F5F5F5F5F5F5F5F5F5F5F5F5F5F5F5F5F5F5F5F5F5F5F5F5F5F5F5F5F5F5F5F5F5F5F5F5F5F5F5F5F5F5F5F5F5F5F5F5F5F5F5F5F5F5F5F5F5F5F5F5F5F5F5F5F5F5F5F5F5F5F5F5F5F5F5F5F5F5F5F5F5F5F5F5F5F5F5F5F5F5F5F5F5F5F5F5F5F5F5F5F5F5F5F5F5F5F5F5F5F5F5F5F5F5F5F5F5F5F5F5F5F5F5F5
310
F5E2F5E2E2EFE2F5E2F5F5F5F5F5F5F5F5F5F5F5F5F5F5F5F5F5F5F5F5F5F5F5F5F5F5F5F5F5F5F5F5F5F5F5F5F5F5F5F5F5F5F5F5F5F5F5F5F5F5F5F5F5F5F5F5F5F5F5F5F5F5F5F5F5F5F5F5F5F5F5F5F5F5F5F5F5F5F5F5F5F5F5F5F5F5F5F5F5F5F5F5F5F5F5F5F5F5F5F5F5F5F5F5F5F5F5F5F5F5F5F5F5F5F5F5F5F5
310
F5F5F5F5F5F5F5F5F5F5F5F5F5F5F5F5F5F5F5F5F5F5F5F5F5F5F5F5F5F5F5F5F5F5F5F5F5F5F5F5F5F5F5F5F5F5F5F5F5F5F5F5F5F5E2F5E2E2EFE2F5E2F5F528282828DCDCDCDCDCDCDCDCDCDCDCDCDCDCDCDCDCDCDCDCDCDCDCDCDCDCDCDCDCDCDCDCDCDCDCDCDCDCDCDCDCDCDCDCDCDCDCDCDCDCDCDCDCDCDCDCDCDCDC
310
DCDCDCDCDC28DCDCDCDCDCDCDC28DCDCDCDCDCDCDCDCDCDCDCDCDCDCDCDCDCDCDCDCDCDCDCDCDCDCDCDCDCDCDCDCDCDCDCDCDCDCDCDCDCDCDC28DCDCDCDCDCDCDCDCDCDCDCDCDCDCDCDCDCDCDCDCDCDCDCDCDCDCDCDCDCDCDCDCDCDCDCDCDC28DCDCDCDCDCDCDCDCF5F5F5E2F5E2E2EFE2F5E2F5F528F5F5DCF5F5F5F5F5F5
310
F5F5F5F5F5F5F5F5F5F5F5F5F5F5F5F5F5F5F5F5F5F5F5F5F5F5F5F5F5F5F5F5F5F5F5F5F5F5F5F5F5F5F5F5F5F5F5F5F5DCF5F5BEBEBEBEF5F528F5BEBEBEBEBEF528F5F5BEBEBEBEBEF5DCF5F5F5F5F5F5F5F5F5BEF5F5F5F5BEF5F5F5F5F5F5F5F5F5F5F5F5BEBEBEBEBEBEF528BEBEF5F5BEBEF5BEBEF5BEBEF5BEBEF5
310
BEBEBEF5BEBEBEBEF5BEBEF5BEBEBEBEBEBEF5BEBE28F5F5F5F5F5F5F5DCF5F5F5E2F5E2E2EFE2F5E2F5F528F5F5DCF5F5F5F5F5F5F5F5F5F5F5F5F5F5F5F5F5F5F5F5F5F5F5F5F5F5F5F5F5F5F5F5F5F5F5F5F5F5F5F5F5F5F5F5F5F5F5F5F5F5F5F5F5F5F5DCF5F5BEF5F5BEF5F528F5BEBEF5BEF5F528F5F5BEF5F5F5F5
310
F5DCF5BEBEBEBEBEBEBEBEBEBEBEBEBEBEF5F5F5F5F5F5F5F5F5F5F5F5BEBEBEBEBEBEBE28BEBEF5F5BEF5F5BEBEF5BEBEF5BEBEF5BEBEBEF5BEBEBEBEF5F5F5F5BEBEF5BEBEBEBEBEBE2828F5F5F5F5F5F5DCF5F5F5E2F5E2E2EFE2F5E2F5F528F5F5DCF5F5F5F5F5F5F5F5F5F5F5F5F5F5F5F5F5F5F5F5F5F5F5F5F5F5F5
310
F5F5F5F5F5F5F5F5F5F5F5F5F5F5F5F5F5F5F5F5F5F5F5F5F5F5F5F5DC28282828282828282828282828282828282828282828282828DCF5BEBEBEBEBEBEBEBEBEBEBEBEBEBEF5F5F5F5F5F5F5F5F5F5F5F5BEBEBEBEBEBEBE28DCDCDCDCDCDCDCDCDCDCDCDCDCDCDCDCDCDCDCDCDCDCDCDCDCDCDCDCDCDCDCDCDCDCDCDCDC
310
28F52828F5F5F5F5DCF5F5F5E2F5E2E2EFE2F5E2F5F528F5F5DCF5F5F5F5F5F5F5F5F5F5F5F5F5F5F5F5F5F5F5F5F5F5F5F5F5F5F5F5F5D6D6D6D6D6D6F5D6F5F5F5F5F5F5F5F5F5F5F5F5F5F5F5F5F5F5DCF5BEBEBEBEBEBEF528BEBEBEBEBEBEBE28BEBEBEF5BEF5F5F5DCF5F5F5F5F5F5F5F5F5F5F5F5F5F5F5F5F5F5F5
310
F5F5F5F5F5F5F5F5BEBEBEBEBEBEBEDCF5BEBEBEBEF5F5BEBEF5BEF5F5BEBEBEBEF5F5F5BEF5BEF5BEF5F5BEBEBEBEF5BEBEBEBEF5DCF5F5F52828F5F5DCF5F5F5E2F5E2E2EFE2F5F5F5F528F5F5DCF5F5F5F5F5F5F5F5F5F5F5F5F5F5F5F5F5F5F5F5F5F5F5F5F5F5F5F5F5D6D6D6D6D6F5D6D6D6D6F5F5F5F5F5F5F5F5F5
310
F5F5F5F5F5F5F5DCF5BEBEBEBEBEBEF528BEBEBEBEBEBEBE28BEBEF5F5F5F5F5F5DCF5BEBEBEBEBEBEBEBEBEBEBEBEBEBEBEBEBEBEBEBEBEBEBEBEF5F5BEBEBEBEBEBEBEDCF5BEBEBEBEF5F5BEBEF5F5BEF5BEF5BEF5BEF5BEF5BEF5BEF5BEF5BEF5BEF5BEBEF5BEF5F5DCF5F5F5F5F528F5DCF5F5F5F5F5E2E2EFE2F5F5F5
310
F528F5F5DCF5F5F5F5F5F5F5F5F5F5F5F5F5F5F5F5F5F5F5F5F5F5F5F5F5F5F5F5D6D6D6D6F5D6D6D6D6F5F5D6F5F5F5F5F5F5F5F5F5F5F5F5F5F5F5DC28282828282828282828282828282828282828282828282828DCF5BEBEBEBEBEBEBEBEBEBEBEBEBEBEBEBEBEBEBEBEBEF5BEBEF5F5BEBEBEBEBEBEBEDCF5BEBEF5BE
310
F5F5BEBEBEBEBEF5F5BEBEF5BEF5BEF5BEF5BEBEBEF5F5BEBEBEF5BEF5BEF5F5BEBEBEBEBEBEBEF5DCF5F5F5F5F5E2E2EFE2F5F5F5F528F5F5DCF5F5F5F5F5F5F5F5F5F5F5F5F5F5F5F5F5F5F5F5F5F5F5F5F5F5D6D6D6D6D6D6D6D6D6D6F5D6D6F5D6D6F5F5F5F5F5F5F5F5F5F5F5F5F5DCF5BEBEBEBEBEBEF528BEBEBEBE
310
F5BEBE28F5BEBEF5BEF5F5F5DCF5F5F5F5F5F5F5F5F5F5F5F5F5F5F5F5F5F5F5F5F5F5F5F5F5F5F5F5F5F5F5F5BEBEDCBEBEBEBEF5F5F5BEBEBEBEBEF5BEBEBEBEBEF5BEBEBEBEBEBEBEF5BEBEBEBEF5BEF5BEF5F5DCBEBEBEBEBEBEBEDCF5F5F5F5F5E2E2EFE2F5F5F5F528F5F5DCF5F5F5F5F5F5F5F5F5F5F5F5F5F5F5F5
310
F5F5F5F5F5F5F5F5D6D6D6D6D6D6D6D6F5D6D6F5D6D6F5D6D6F5D6F5F5F5F5F5F5F5F5F5F5F5F5DC28282828282828282828282828282828282828282828282828DC28282828282828282828282828282828282828282828282828282828282828282828DCDCDCDCDCDCDCDCDCDCDCDCDCDCDCDCDCDCDCDCDCDCDCDCDCDCDC
310
DCDCDCDCDCDCDCDCDCDCDCBEBEBEBEBE28282828F5F5F5F5F5E2E2EFE2F5F5F5F528F5F5DCF5F5F5F5F5F5F5F5F5F5F5F5F5F5F5F5F5F5F5F5F5F5F5D6D6D6F5F5D6D6D6F5F5D6D6F5F5F5D6D6F5D6D6F5F5F5F5F5F5F5F5F5F5F5F5DCF5BEBEBEBEBEBEF528BEBEBEBEBEBEBE28F5BEBEBEBEF5F5F5DCBEBEBEBEF528F5F5
310
F5F5F5F5F5F528F5F5F5F5F5F5F528F5F5F5F5F5F5F5F5F5F5F528F5F5F5F5F5F5F5F5F5F5F5F5F5F5F5F5F5F5F5F5F5F5F5F5F5F5F5F5F5F5F5F5F5F5F5F5F5F5F5F5F5F5F5F5F5DCF5F5F5F5F5E2E2EFE2F5F5F5F528F5F5DCF5F5F5F5F5F5F5F5F5F5F5F5F5F5F5F5F5F5F5F5F5D6D6D6F5D6D6D6D6D6D6F5F5D6D6D6D6
310
F5F5F5D6D6F5D6D6D6F5F5F5F5F5F5F5F5F5DCBEBEBEBEBEBEBEF528BEBEBEBEBEBEBE28F5BEBEBEBEF5F5F5DCBEBEBEBEF528F5F5F5BEF5F5F5F528F5F5F5BEF5F5F528F5F5F5F5F5F5F5F5F5F5F528F5F5F5F5F5F5F5F5F5F5F5F5F5F5F5F5F5F5F5F5F5F5F5F5F5F5F5F5F5F5F5F5F5F5F5F5F5F5F5F5F5F5F5F5F5DCF5
310
F5F5F5F5E2E2EFE2F5F5F5F528F5F5DCF5F5F5F5F5F5F5F5F5F5F5F5F5F5F5F5F5F5F5D6D6D6D6D6D6D6D6F5D6D6D6F5F5D6F5D6D6F5F5F5F5F5D6D6D6D6F5F5F5F5F5F5F5F5F5DC28282828282828282828282828282828282828282828282828DCBEBE28BE28282828282828282828282828282828282828F5F5F5BEBEF5
310
F5BEBEF5F528F5F5BEBEBEBEBEBEBEBEBEBEBEBEBEBEBEBEBEBEF5F5BEBEBEBEBEBEBEF5BEBEBEBEBEBEF5BEBEF5F5F5F5F5F5DCF5F5F5F5F5E2E2EFE2F5F5F5F528BEBEDCF5F5F5F5F5F5F5F5F5F5F5F5F5F5F5F5F5F5D6D6D6D6D6D6D6D6F5F5D6D6D6F5F5D6D6D6D6F5F5F51BD6F5D6D6D6F5F5F5F5F5F5F5F5F5DCF5BE
310
BEBEBEBEBEF528BEBEBEBEBEBEBE28BEBEBEF5F5F5F5F5DCBEBEBEF5F528F5F5F5F5F5F5F5F528BEBEBEBEF5F5F528F5F5F5BEF5BEF5BEF5F5F528F5F5BEBEBEBEBEBEBEBEBEBEBEBEBEBEBEBEBEBEBEF5BEBEBEBEBEBEBEF5BEBEBEBEBEBEBEBEBEF5F5F5F5F5F5DCF5F5F5F5F5E2E2EFE2F5F5F5F528BEBEDCF5F5F5F5F5
310
F5F5F5F5F5F5F5F5F5F5F5F5F5D6D6D6F5CAF5F5D6F5F5D6D6D6F5F5D6D6D6F5F5F5D61B1BF5D6D6D6F5F5F5F5F5F5F5F5F5DCBEBEBEBEBEBEBEF528BEBEBEBEF5BEBE28BEBEF5F5BEF5F5F5DCBEBEBEF5F528F5F5F5BEF5F5F5F528BEBEBEBEF5F5F528F5F5F5BEBEBEF5BEF5F5F528F5F5F5BEBEF5F5BEBEF5F5F5F5F5F5
310
F5F5BEF5F5BEF5F5F5F5F5BEF5F5F5F5F5F5F5F5F5F5F5BEF5F5F5F5F5F5DCF5F5F5F5F5E2E2EFE2F5E2F5F528BEF5DCF5F5F5F5F5F5F5F5F5F5F5F5F5F5F5F5F5F5D6F51B1BBE1BF5D6F5F5D6D6D6F5D6D6D6F5F5D61B1B1B1BD6D6D6D6D6F5F5F5F5F5F5F5F5DC2828282828282828282828282828282828282828282828
310
2828DC2828282828282828282828282828282828282828282828F5F5F5BEBEF5F5BEF5F5F528F5F5F5F5F5F5F5F5F5F5F5F5F5F5F5F5F5F5F5F5F5F5F5F5F5F5F5F5F5F5F5F5F5F5F5F5F5F5F5F5F5F5F5F5F5DCF5F5F5E2F5E2E2EFE2F5E2F5F528F5F5DCF5F5F5F5F5F5F5F5F5F5F5F5F5F5F5F5F5F5F5D6D6BE1BCAF5D6
310
F5F5D6D6D6D6D6D6D6D61B1BF51B1BF5D6D6D6F5D6F5F5F5F5F5F5F5F5DCBEBEBEBEBEBEBEF528BEBEBEBEBEBEBE28BEBEBEBEBEF5F5F5DCBEBEBEBEF528BEBEF5BEBEF5BEBE28BEBEBEBEBEBEF528F5F5F5F5F5F5F5F5F5F5F528F5F5F5F5F5F5F5F5F5F5F5F5F5F5F5F5F5F5F5F5F5F5BEF5F5F5F5F5F5F5F5F5F5F5F5F5
310
F5F5F5F5F5F5F5F5F5DCF5F5F5E2F5E2E2EFE2F5E2F5F528F5F5DCF5F5F5F5F5F5F5F5F5F5F5F5F5F5F5F5F5F5F5F51BBE1B1BBED6F5F5D6D6D6F5F5D61B1B1B1B1BF5F5F5D6D6D6F5D6F5F5F5F5F5F5F5F5DCF5BEBEBEBEBEBEF528BEF5BEBEBEBEBE28BEBEBEF5BEF5F5F5DCBEBEBEBEF528BEBEF5BEBEBEBEBE28BEBEBE
310
BEBEBEF528F5F5F5F5F5F5F5F5F5F5F528F5F5F5F5F5F5F5F5F5F5F5F5F5F5BEF5BEBEBEF5BEF5F5BEBEBEBEF5F5BEBEF5F5F5F5F5F5F5F5F5F5F5F5F5F5DCF5F5F5E2F5E2E2EFE2F5E2F5F528F5F5DCF5F5F5F5F5F5F5F5F5F5F5F5F5F5F5F5F5F5F5D61B1BCACABED6D6D6D6D6D6F5D6D6D61B1BD6F5F5F5F5D6D6D6F5D6
310
F5F5F5F5F5F5F5F5DC28282828282828282828282828282828282828282828282828DC2828282828282828282828282828282828282828282828F5F5F5F5F5F5F5F5F5F5F528F5F5F5F5F5F5F5F5F5F5F5F5F5F5BEF5BEBEBEF5BEF5F5BEBEBEBEF5F5BEBEF5F5F5F5F5F5F5F5F5F5F5F5F5F5DCF5F5F5E2F5E2E2EFE2F5E2
310
F5F528F5F5DCF5F5F5F5F5F5F5F5F5F5F5F5F5F5F5F5F5F5F5D61B1BCABEBED6F5F5F5D6D6D6F5F5D6D6D6D6F5F51B1BD6D6D6F5D6F5F5F5F5F5F5F5F5DCF5F5F5F5F5F5F5F528F5F5F5F5F5F5F528F5F5F5F5F5F5F5F5DCF5F5F5F5F528F5F5BEBEBEF5F5F528F5F5BEBEBEF5F528F5F5BEBEBEBEBEBEBEBEF528F5F5F5F5
310
F5F5F5F5F5F5F5F5F5F5BEBEBEBEBEBEBEF5F5BEBEBEBEBEBEBEBEF5F5F5F5F5F5F5F5F5F5F5F5F5F5DCF5F5F5E2F5E2E2EFE2F5E2F5F528F5F5DCF5F5F5F5F5F5F5F5F5F5F5F5F5F5F5F5F5F5F5D6D61BD6D6D6F5F5D6D6D6D6D6D6D6F5D6D6D61B1B1B1BD6D6D6F5D6F5F5F5F5F5F5F5F5DCF5F5F5BEF5F5F5F528F5F5F5
310
BEF5F5F528F5F5F5F5BEF5F5F5DCF5F5F5F5F528F5F5BEBEBEF5F5F528F5F5BEBEBEF5F528F5F5BEBEBEBEBEBEBEBEF528F5F5F5F5F5F5F5F5F5F5F5F5F5F5BEF5BEF5F5F5F5F5F5BEBEBEF5F5F5BEBEF5F5F5F5F5F5F5F5F5F5F5F5F5F5DCF5F5F5E2F5E2E2EFE2F5E2F5F528F5F5DCF5F5F5F5F5F5F5F5F5F5F5F5F5F5F5
310
F5F5F5F5D6D6D6D6F5F5D6D6F5F5D6D6D6D6D6D6D6F5D6D6D61BD6D6D6D6F5D6F5F5F5F5F5F5F5F5DC28282828282828282828282828282828282828282828282828DC282828282828282828282828282828282828282828282828282828282828282828282828282828282828282828282828282828282828282828282828
310
2828282828282828282828282828282828282828DCF5F5F5E2F5E2E2EFE2F5E2F5F528F5F5DCF5F5F5F5F5F5F5F5F5F5F5F5F5F5F5F5F5F5F5D6D6F5D6D6D6F5F5F5F5F5D6D6D6D6D6F5F5F5F5D6F5D6D6D6D6D6D6F5F5F5F5F5F5F5F5DCF5F5F5F5DCDCF5DC28DCF5BEBEBEBEBEBEBEBEBEBEBEBEBEF5DCF5F5F5F5F5F5F5
310
F5F5F5F5F5F5F5F5F5F5F5F5F5F5F5F5F5F5F5F5F5F5F5F5F5F5F528F5F5F5F5F5F5F5F5F5F5F5F5F5F5F5F5F5F5F5F5F5F5F5F5F5F5F5F5F5F5F5F5F5F5F5F5F5F5F5F5F5F5F5F5F5DCF5F5F5E2F5E2E2EFE2F5E2F5F528F5F5DCF5F5F5F5F5F5F5F5F5F5F5F5F5F5F5F5F5F5D6D6D6D61BD6D6F5F5F5D6D6F5D6D6D6D6D6
310
D6F5F5F5D6D6D6D6D6D6F5F5F5F5F5F5F5F5F5DCF5DCDCDCF5DCDCDC28DCDCBEBEBEBEBEBEBEBEBEBEBEBEBEF5DCF5F5F5F5F5F5F5F5F5F5F5F5F5F5F5F5F5F5F5F5F5F5F5F5F5F5F5F5F5F5F5F5F5F528F5F5F5F5F5F5F5F5F5F5F5F5F5F5F5F5F5F5F5F5F5F5BEF5F5F5F5F5F5F5F5F5F5F5F5F5F5F5F5F5F5F5F5F5F5DC
310
F5F5F5E2F5E2E2EFE2F5E2F5F528F5F5DCF5F5F5F5F5F5F5F5F5F5F5F5F5F5F5F5F5F5D6D6D6D61BD6D6F5D6D6F5F5F5F5F5F5D6D6F5D6D6F5F5F5D6D6F5D6F5F5F5F5F5F5F5F5F5DC282828282828282828282828F5F5F5F5F5F5F5F5F5F5F5F5F5DCF5F5F5F5F5F5F5F5F5F5F5F5F5F5F5F5F5F5F5F5F5F5BEF5F5F5F5F5
310
F5F5F5F5F5F528F5F5F5F5F5F5F5F5F5F5F5F5F5F5F5F5F5F5F5F5F5F5F5F5F5F5F5F5F5F5F5F5F5F5F5F5F5F5F5F5F5F5F5F5F5DCF5F5F5E2F5E2E2EFE2F5E2F5F528F5F5DCF5F5F5F5F5F5F5F5F5F5F5F5F5F5F5F5F5F5D6D6F5F51B1BD6D6F5F5F5F5F5F5F5F5F5D6D6D6F5D6D6D6D6D6D6D6F5F5F5F5F5F5F5F5F5DCF5
310
DCDCF5F5DCDCDC28DCDCBEBEBEBEBEBEBEBEBEBEBEBEBEF5DCBEBEBEBEBEBEBEBEBEBEF5F5F5F5F5F5F5F5F5F5F5F5F5F5F5F5F5F5F5F5F5F5F5F528BEBEBEBEBEBEBEBEBEBEBEBEF5BEBEBEBEBEBEBEBEBEBEBEBEF5F5F5F5F5F5F5F5F5F5F5F5F5F5F5F5F5F5F5F5DCF5F5F5E2F5E2E2EFE2F5E2F5F528F5F5DCF5F5F5F5
310
F5F5F5F5F5F5F5F5F5F5F5F5F5F5F5D6F5F5F51B1B1BF5F5F5F5F5F5F5F5F5F5F5D6D6F5F5D6D6D6D6F5F5F5F5F5F5F5F5F5F5DCF5F5F5DCDCDCF5DC28DCF5BEBEBEBEF5F5BEF5F5BEF5F5F5F5DCBEBEBEBEBEBEBEBEBEBEF5F5F5F5F5F5F5F5F5F5F5F5F5F5F5F5F5F5F5F5F5F5F5F528BEBEBEBEBEBEBEBEBEBEBEBEBEBE
310
BEBEBEBEBEBEBEBEBEBEBEF5F5F5F5F5F5F5F5F5F5F5F5F5F5F5F5F5F5F5F5DCF5F5F5E2F5E2E2EFE2F5E2F5F528F5F5DCF5F5F5F5F5F5F5F5F5F5F5F5F5F5F5F5F5F5F5D6D6F51BD6D6F5F5F5F5D6BEF5F5F5F5F5F5F5D6D6D6D6D6D6D6F5F5F5F5F5F5F5F5F5F5DCDCDCDCDCDCDCDCDC28DCDCDCDCDCDCDCDCDCDCDCDCDC
310
DCDCDCDCDCDCDCDCDCDCDCDCDCDCDCDCDCDCDCDCDCDCDCDCDCDCDCDCDCDCDCDCDCDCDCDCDCDC28DCDCDCDCDCDCDCDCDCDCDCDCDCDCDCDCDCDCDCDCDCDCDCDCDCDCDCDCDCDCDCDCDCDCDCDCDCDCDCDCDCDCDCDCDCDCF5F5F5E2F5E2E2EFE2F5E2F5F528282828F5F5F5F5F5F5F5F5F5F5F5F5F5F5F5F5F5F5F5F5D6D6D6F5F5
310
F5F5D6D6D6F5BEBEF5F5F5F5F5F5F5D6D6D6D6F5F5F5F5F5F5F5F5F5F5F5F5F5F5F5F5F5F5F5F5F5F5F5F5F5F5F5F5F5F5F5F5F5F5F5F5F5F5F5F5F5F5F5F5F5F5F5F5F5F5F5F5F5F5F5F5F5F5F5F5F5F5F5F5F5F5F5F5F5F5F5F5F5F5F5F5F5F5F5F5F5F5F5F5F5F5F5F5F5F5F5F5F5F5F5F5F5F5F5F5F5F5F5F5F5F5F5F5
310
F5F5F5F5F5F5F5F5F5F5DCF5F5F5E2F5E2E2EFE2F5E2F5F528F5F5DCF5F5F5F5F5F5F5F5F5F5F5F5F5F5F5F5F5F5F5F5D6D6D6F5F5D6D6D6F5C3C3C3F5BEBEF5F5F5D6D6F5F5F5F5F5F5F5F5F5F5F5F5F5F5F5F5F5F5F5F5F5F5F5F5F5F5F5F5F5F5F5F5F5F5F5F5F5F5F5F5F5F5F5F5F5F5F5F5F5F5F5F5F5F5F5F5F5F5F5
310
F5F5F5F5F5F5F5F5F5F5F5F5F5F5F5F5F5F5F5F5F5F5F5F5F5F5F5F5F5F5F5F5F5F5F5F5F5F5F5F5F5F5F5F5F5F5F5F5F5F5F5F5F5F5F5F5F5F5F5F5F5F5F5DCF5F5F5E2F5E2E2EFE2F5E2F5F528F5F5DCF5F5F5F5F5F5F5F5F5F5F5F5F5F5F5F5F5F5F5F5F5F5D6D6D6D6F5C3C3C3C3F5D6D6F5F5D6D6D6F5F5F5F5F5F5F5
310
F5F5F5F5F5F5F5F5F5F5F5F5F5F5F5F5F5F5F5F5F5F5F5F5F5F5F5F5F5F5F5F5F5F5F5F5F5F5F5F5F5F5F5F5F5F5F5F5F5F5F5F5F5F5F5F5F5F5F5F5F5F5F5F5F5F5F5F5F5F5F5F5F5F5F5F5F5F5F5F5F5F5F5F5F5F5F5F5F5F5F5F5F5F5F5F5F5F5F5F5F5F5F5F5F5F5F5F5F5F5F5F5F5F5F5F5DCF5F5F5E2F5E2E2EFE2F5
310
F5F5F528F5F5DCF5F5F5F5F5F5F5F5F5F5F5F5F5F5F5F5F5F5F5F5F5F5D6D6F5C3C3D6C3F5F5D6D6D6D6D6D6F5F5F5F5F5F5F5F5F5F5F5F5F5F5F5F5F5F5F5F5F5F5F5F5F5F5F5F5F5F5F5F5F5F5F5F5F5F5F5F5F5F5F5F5F5F5F5F5F5F5F5F5F5F5F5F5F5F5F5F5F5F5F5F5F5F5F5F5F5F5F5F5F5F5F5F5F5F5F5F5F5F5F5
310
F5F5F5F5F5F5F5F5F5F5F5F5F5F5F5F5F5F5F5F5F5F5F5F5F5F5F5F5F5F5F5F5F5F5F5F5F5F5F5F5F5F5DCF5F5F5F5F5E2E2EFE2F5F5F5F528F5F5DCF5F5F5F5F5F5F5F5F5F5F5F5F5F5F5F5F5F5F5F5F5F5F5C3C3C3C3C3F5D6D6D6F5F5F5F5F5F5F5F5F5F5F5F5F5F5F5F5F5F5F5F5F5F5F5F5F5F5F5F5F5F5F5F5F5F5F5
310
F5F5F5F5F5F5F5F5F5F5F5F5F5F5F5F5F5F5F5F5F5F5F5F5F5F5F5F5F5F5F5F5F5F5F5F5F5F5F5F5F5F5F5F5F5F5F5F5F5F5F5F5F5F5F5F5F5F5F5F5F5F5F5F5F5F5F5F5F5F5F5F5F5F5F5F5F5F5F5F5F5F5F5F5F5F5F5F5F5F5F5F5F5F5F5DCF5F5F5F5F5E2E2EFE2F5F5F5F528F5F5DCF5F5F5F5F5F5F5F5F5F5F5F5F5F5
310
F5F5F5F5F5F5F5F5F5F5F5C3F5D6D6D6F5F5F5F5F5F5F5F5F5F5F5F5F5F5F5F5F5F5F5F5F5F5F5F5F5F5F5F5F5F5F5F5F5F5F5F5F5F5F5F5F5F5F5F5F5F5F5F5F5F5F5F5F5F5F5F5F5F5F5F5F5F5F5F5F5F5F5F5F5F5F5F5F5F5F5F5F5F5F5F5F5F5F5F5F5F5F5F5F5F5F5F5F5F5F5F5F5F5F5F5F5F5F5F5F5F5F5F5F5F5F5
310
F5F5F5F5F5F5F5F5F5F5F5F5F5F5F5F5F5F5F5F5F5DCF5F5F5F5F5E2E2EFE2F5F5F5F528F5F5DCF5F5F5F5F5F5F5F5F5F5F5F5F5F5F5F5F5F5F5F5F5F5F5F5F5F5D6F5F5F5F5F5F5F5F5F5F5F5F5F5F5F5F5F5F5F5F5F5F5F5F5F5F5F5F5F5F5F5F5F5F5F5F5F5F5F5F5F5F5F5F5F5F5F5F5F5F5F5F5F5F5F5F5F5F5F5F5F5
310
F5F5F5F5F5F5F5F5F5F5F5F5F5F5F5F5F5F5F5F5F5F5F5F5F5F5F5F5F5F5F5F5F5F5F5F5F5F5F5F5F5F5F5F5F5F5F5F5F5F5F5F5F5F5F5F5F5F5F5F5F5F5F5F5F5F5F5F5F5F5F5F5F5F5DCF5F5F5F5F5E2E2EFE2F5F5F5F528F5F5DCF5F5F5F5F5F5F5F5F5F5F5F5F5F5F5F5F5F5F5F5F5F5F5F5F5F5F5F5F5F5F5F5F5F5F5
310
F5F5F5F5F5F5F5F5F5F5F5F5F5F5F5F5F5F5F5F5F5F5F5F5F5F5F5F5F5F5F5F5F5F5F5F5F5F5F5F5F5F5F5F5F5F5F5F5F5F5F5F5F5F5F5F5F5F5F5F5F5F5F5F5F5F5F5F5F5F5F5F5F5F5F5F5F5F5F5F5F5F5F5F5F5F5F5F5F5F5F5F5F5F5F5F5F5F5F5F5F5F5F5F5F5F5F5F5F5F5F5F5F5F5F5F5F5F5F5F5F5F5F5F5F5F5F5
310
DCF5F5F5F5F5E2E2EFE2F5F5F5F528F5F5DCF5F5F5F5F5F5F5F5F5F5F5F5F5F5F5F5F5F5F5F5F5F5F5F5F5F5F5F5F5F5F5F5F5F5F5F5F5F5F5F5F5F5F5F5F5F5F5F5F5F5F5F5F5F5F5F5F5F5F5F5F5F5F5F5F5F5F5F5F5F5F5F5F5F5F5F5F5F5F5F5F5F5F5F5F5F5F5F5F5F5F5F5F5F5F5F5F5F5F5F5F5F5F5F5F5F5F5F5F5
310
F5F5F5F5F5F5F5F5F5F5F5F5F5F5F5F5F5F5F5F5F5F5F5F5F5F5F5F5F5F5F5F5F5F5F5F5F5F5F5F5F5F5F5F5F5F5F5F5F5F5F5F5F5DCF5F5F5F5F5E2E2EFE2F5F5F5F528F5F5DCF5F5F5F5F5F5F5F5F5F5F5F5F5F5F5F5F5F5F5F5F5F5F5F5F5F5F5F5F5F5F5F5F5F5F5F5F5F5F5F5F5F5F5F5F5F5F5F5F5F5F5F5F5F5F5F5
310
F5F5F5F5F5F5F5F5F5F5F5F5F5F5F5F5F5F5F5F5F5F5F5F5F5F5F5F5F5F5F5F5F5F5F5F5F5F5F5F5F5F5F5F5F5F5F5F5F5F5F5F5F5F5F5F5F5F5F5F5F5F5F5F5F5F5F5F5F5F5F5F5F5F5F5F5F5F5F5F5F5F5F5F5F5F5F5F5F5F5F5F5F5F5F5F5F5F5F5F5F5F5F5F5F5F5DCF5F5F5F5F5E2E2EFE2F5F5F5F528F5F5DCF5F5F5
310
F5F5F5F5F5F5F5F5F5F5F5F5F5F5F5F5F5F5F5F5F5F5F5F5F5F5F5F5F5F5F5F5F5F5F5F5F5F5F5F5F5F5F5F5F5F5F5F5F5F5F5F5F5F5F5F5F5F5F5F5F5F5F5F5F5F5F5F5F5F5F5F5F5F5F5F5F5F5F5F5F5F5F5F5F5F5F5F5F5F5F5F5F5F5F5F5F5F5F5F5F5F5F5F5F5F5F5F5F5F5F5F5F5F5F5F5F5F5F5F5F5F5F5F5F5F5F5
310
F5F5F5F5F5F5F5F5F5F5F5F5F5F5F5F5F5F5F5F5F5F5F5F5F5F5F5F5F5F5F5F5DCF5F5F5F5F5E2E2EFE2F5E2F5F528F5F5DCF5F5F5F5F5F5F5F5F5F5F5F5F5F5F5F5F5F5F5F5F5F5F5F5F5F5F5F5F5F5F5F5F5F5F5F5F5F5F5F5F5F5F5F5F5F5F5F5F5F5F5F5F5F5F5F5F5F5F5F5F5F5F5F5F5F5F5F5F5F5F5F5F5F5F5F5F5
310
F5F5F5F5F5F5F5F5F5F5F5F5F5F5F5F5F5F5F5F5F5F5F5F5F5F5F5F5F5F5F5F5F5F5F5F5F5F5F5F5F5F5F5F5F5F5F5F5F5F5F5F5F5F5F5F5F5F5F5F5F5F5F5F5F5F5F5F5F5F5F5F5F5F5F5F5F5F5F5F5F5F5F5F5F5DCF5F5F5E2F5E2E2EFE2F5E2F5F528BEBEDCF5F5F5F5F5F5F5F5F5F5F5F5F5F5F5F5F5F5F5F5F5F5F5F5
310
F5F5F5F5F5F5F5F5F5F5F5F5F5F5F5F5F5F5F5F5F5F5F5F5F5F5F5F5F5F5F5F5F5F5F5F5F5F5F5F5F5F5F5F5F5F5F5F5F5F5F5F5F5F5F5F5F5F5F5F5F5F5F5F5F5F5F5F5F5F5F5F5F5F5F5F5F5F5F5F5F5F5F5F5F5F5F5F5F5F5F5F5F5F5F5F5F5F5F5F5F5F5F5F5F5F5F5F5F5F5F5F5F5F5F5F5F5F5F5F5F5F5F5F5F5F5F5
310
F5F5F5F5F5F5F5F5F5F5F5DCF5F5F5E2F5E2E2EFE2F5E2F5F528BEBEDCF5F5F5F5F5F5F5F5F5F5F5F5F5F5F5F5F5F5F5F5F5F5F5F5F5F5F5F5F5F5F5F5F5F5F5F5F5F5F5F5F5F5F5F5F5F5F5F5F5F5F5F5F5F5F5F5F5F5F5F5F5F5F5F5F5F5F5F5F5F5F5F5F5F5F5F5F5F5F5F5F5F5F5F5F5F5F5F5F5F5F5F5F5F5F5F5F5F5
310
F5F5F5F5F5F5F5F5F5F5F5F5F5F5F5F5F5F5F5F5F5F5F5F5F5F5F5F5F5F5F5F5F5F5F5F5F5F5F5F5F5F5F5F5F5F5F5F5F5F5F5F5F5F5F5F5F5F5F5F5F5F5F5F5DCF5F5F5E2F5E2E2EFE2F5E2F5F528BEBEDCF5F5F5F5F5F5F5F5F5F5F5F5F5F5F5F5F5F5F5F5F5F5F5F5F5F5F5F5F5F5F5F5F5F5F5F5F5F5F5F5F5F5F5F5F5
310
F5F5F5F5F5F5F5F5F5F5F5F5F5F5F5F5F5F5F5F5F5F5F5F5F5F5F5F5F5F5F5F5F5F5F5F5F5F5F5F5F5F5F5F5F5F5F5F5F5F5F5F5F5F5F5F5F5F5F5F5F5F5F5F5F5F5F5F5F5F5F5F5F5F5F5F5F5F5F5F5F5F5F5F5F5F5F5F5F5F5F5F5F5F5F5F5F5F5F5F5F5F5F5F5F5F5F5F5F5F5F5F5F5F5F5F5F5DCF5F5F5E2F5E2E2EFE2
310
F5E2F5F528F5F5DCF5F5F5F5F5F5F5F5F5F5F5F5F5F5F5F5F5F5F5F5F5F5F5F5F5F5F5F5F5F5F5F5F5F5F5F5F5F5F5F5F5F5F5F5F5F5F5F5F5F5F5F5F5F5F5F5F5F5F5F5F5F5F5F5F5F5F5F5F5F5F5F5F5F5F5F5F5F5F5F5F5F5F5F5F5F5F5F5F5F5F5F5F5F5F5F5F5F5F5F5F5F5F5F5F5F5F5F5F5F5F5F5F5F5F5F5F5F5F5
310
F5F5F5F5F5F5F5F5F5F5F5F5F5F5F5F5BEF5F5F5F5F5F5F5F5F5F5F5F5F5F5F5F5F5F5F5F5F5F5F5F5F5F5DCF5F5F5E2F5E2E2EFE2F5E2F5F528F5F5DCF5F5F5F5F5F5F5F5F5F5F5F5F5F5F5F5F5F5F5F5F5F5F5F5F5F5F5F5F5F5F5F5F5F5F5F5F5F5F5F5F5F5F5F5F5F5F5F5F5F5F5F5F5F5F5F5F5F5F5F5F5F5F5F5F5F5
310
F5F5F5F5F5F5F5F5F5F5F5F5F5F5F5F5F5F5F5F5F5F5F5F5F5F5F5F5F5F5F5F5F5F5F5F5F5F5F5F5F5F5F5F5F5F5F5F5F5F5F5F5F5F5F5F5F5F5F5F5F5F5F5F5F5F5F5BEBEBEBEBEBEBEBEBEBEBEBEBEBEBEBEBEBEBEBEBEBEBEF5F5F5F5F5F5DCF5F5F5E2F5E2E2EFE2F5E2F5F528F5F5DCF5F5F5F5F5F5F5F5F5F5F5F5F5
310
F5F5F5F5F5F5F5F5F5F5F5F5F5F5F5F5F5F5F5F5F5F5F5F5F5F5F5F5F5F5F5F5F5F5F5F5F5F5F5F5F5F5F5F5F5F5F5F5F5F5F5F5F5F5F5F5F5F5F5F5F5F5F5F5F5F5F5F5F5F5F5F5F5F5F5F5F5F5F5F5F5F5F5F5F5F5F5F5F5F5F5F5F5F5F5F5F5F5F5F5F5F5F5F5F5F5F5F5F5F5F5F5F5F5F5F5F5F5F5F5BEBEBEBEBEBEBE
310
BEBEBEBEBEF5BEBEBEBEBEBEBEBEBEBEF5F5F5F5F5F5DCF5F5F5E2F5E2E2EFE2F5E2F5F528F5F5DCF5F5F5F5F5F5F5F5F5F5F5F5F5F5F5F5F5F5F5F5F5F5F5F5F5F5F5F5F5F5F5F5F5F5F5F5F5F5F5F5F5F5F5F5F5F5F5F5F5F5F5F5F5F5F5F5F5F5F5F5F5F5F5F5F5F5F5F5F5F5F5F5F5F5F5F5F5F5F5F5F5F5F5F5F5F5F5
310
F5F5F5F5F5F5F5F5F5F5F5F5F5F5F5F5F5F5F5F5F5F5F5F5F5F5F5F5F5F5F5F5F5F5F5F5F5F5F5F5F5F5F5F5F5F5F5F5F5F5F5F5F5F5BEF5F5BEF5F5F5BEBEBEF5F5F5F5BEF5F5F5F5F5F5DCF5F5F5E2F5E2E2EFE2F5E2F5F528F5F5DCF5F5F5F5F5F5F5F5F5F5F5F5F5F5F5F5F5F5F5F5F5F5F5F5F5F5F5F5F5F5F5F5F5F5
310
F5F5F5F5F5F5F5F5F5F5F5F5F5F5F5F5F5F5F5F5F5F5F5F5F5F5F5F5F5F5F5F5F5F5F5F5F5F5F5F5F5F5F5F5F5F5F5F5F5F5F5F5F5F5F5F5F5F5F5F5F5F5F5F5F5F5F5F5F5F5F5F5F5F5F5F5F5F5F5F5F5F5F5F5F5F5F5F5F5F5F5F5F5F5F5F5F5F5F5BEBEBEBEBEBEF5BEF5BEBEBEBEBEBEBEBEBEBEBEBEBEBEBEF5F5F5F5
310
F5DCF5F5F5E2F5E2E2EFE2F5E2F5F528F5F5DCF5F5F5F5F5F5F5F5F5F5F5F5F5F5F5F5F5F5F5F5F5F5F5F5F5F5F5F5F5F5F5F5F5F5F5F5F5F5F5F5F5F5F5F5F5F5F5F5F5F5F5F5F5F5F5F5F5F5F5F5F5F5F5F5F5F5F5F5F5F5F5F5F5F5F5F5F5F5F5F5F5F5F5F5F5F5F5F5F5F5F5F5F5F5F5F5F5F5F5F5F5F5F5F5F5F5F5F5
310
F5F5F5F5F5F5F5F5F5F5F5F5F5F5F5F5F5F5F5F5F5F5F5F5F5F5BEBEBEBEBEBEBEF5BEBEBEBEBEBEBEBEF5BEBEBEBEBEBEF5F5F5F5F5DCF5F5F5E2F5E2E2EFE2F5E2F5F528F5F5DCF5F5F5F5F5F5F5F5F5F5F5F5F5F5F5F5F5F5F5F5F5F5F5F5F5F5F5F5F5F5F5F5F5F5F5F5F5F5F5F5F5F5F5F5F5F5F5F5F5F5F5F5F5F5F5
310
F5F5F5F5F5F5F5F5F5F5F5F5F5F5F5F5F5F5F5F5F5F5F5F5F5F5F5F5F5F5F5F5F5F5F5F5F5BEBEBEBEBEBEF5F5F5F5F5F5F5F5F5F5F5F5F5F5F5F5F5F5F5F5F5F5F5F5F5F5F5F5F5F5F5F5F5F5F5F5F5F5F5F5F5F5BEF5F5BEBEF5F5F5BEBEF5F5F5F5F5F5F5F5F5F5F5F5DCF5F5F5E2F5E2E2EFE2F5E2F5F528F5F5DCF5F5
310
F5F5F5F5F5F5F5F5F5F5F5F5F5F5F5F5F5F5F5F5F5F5F5F5F5F5F5F5F5F5F5F5F5F5F5F5F5F5F5F5F5F5F5F5F5F5F5F5F5F5F5F5F5F5F5F5F5F5F5F5F5F5F5F5F5F5F5F5F5F5F5F5F5F5F5F5F5F5F5F5F5F5F5F5F5F5F5F5F5F5BEBEBEBEBEBEF5F5F5F5F5F5F5F5F5F5F5F5F5F5F5F5F5F5F5F5F5F5F5F5F5F5F5F5F5F5F5
310
F5F5F5F5F5BEBEBEBEBEF5BEBEBEBEBEBEBEBEBEBEBEF5F5F5F5F5F5F5F5F5F5F5DCF5F5F5E2F5E2E2EFE2F5E2F5F528F5F5DCF5F5F5F5F5F5F5F5F5F5F5F5F5F5F5F5F5F5F5F5F5F5F5F5F5F5F5F5F5F5F5F5F5F5F5F5F5F5F5F5F5F5F5F5F5F5F5F5F5F5F5F5F5F5F5F5F5F5F5F5F5F5F5F5F5F5F5F5F5F5F5F5F5F5F5F5
310
F5F5F5F5F5F5F5F5F5F5F5F5F5F5F5F5F5F5F5F5F5BEF5F5BEF5F5F5F5F5F5F5F5F5F5F5F5F5F5F5F5F5F5F5F5F5F5F5F5F5F5F5F5F5F5F5F5F5BEBEBEBEBEF5BEBEBEBEBEBEBEBEBEBEBEF5F5F5F5F5F5F5F5F5F5F5DCF5F5F5E2F5E2E2EFE2F5E2F5F528F5F5DCF5F5F5F5F5F5F5F5F5F5F5F5F5F5F5F5F5F5F5F5F5F5F5
310
F5F5F5F5F5F5F5F5F5F5F5F5F5F5F5F5F5F5F5F5F5F5F5F5F5F5F5F5F5F5F5F5F5F5F5F5F5F5F5F5F5F5F5F5F5F5F5F5F5F5F5F5F5F5F5F5F5F5F5F5F5F5F5F5F5F5F5BEBEBEBEBEBEBEBEBEBEBEBEF5F5F5F5F5F5F5F5F5F5F5F5F5F5F5F5F5F5F5F5F5F5F5F5F5F5F5F5F5F5F5F5BEBEBEBEBEF5BEBEBEBEBEBEBEBEBEBE
310
BEF5F5F5F5F5F5F5F5F5F5F5DCF5F5F5E2F5E2E2EFE2F5E2F5F528F5F5DCF5F5F5F5F5F5F5F5F5F5F5F5F5F5F5F5F5F5F5F5F5F5F5F5F5F5F5F5F5F5F5F5F5F5F5F5F5F5F5F5F5F5F5F5F5F5F5F5F5F5F5F5F5F5F5F5F5F5F5F5F5F5F5F5F5F5F5F5F5F5F5F5F5F5F5F5F5F5F5F5F5F5F5F5F5F5F5F5F5F5BEBEBEBEBEBEBE
310
BEBEBEBEBEF5F5F5F5F5F5F5F5F5F5F5F5F5F5F5F5F5F5F5F5F5F5F5F5F5F5F5F5F5F5F5BEBEBEBEBEBEBEBEBEBEBEBEBEBEBEBEBEBEBEBEBEBEBEBEBEBEF5F5F5DCF5F5F5E2F5E2E2EFE2F5E2F5F528F5F5DCF5F5F5F5F5F5F5F5F5F5F5F5F5F5F5F5F5F5F5F5F5F5F5F5F5F5F5F5F5F5F5F5F5F5F5F5F5F5F5F5F5F5F5F5
310
F5F5F5F5F5F5F5F5F5F5F5F5F5F5F5F5F5F5F5F5F5F5F5F5F5F5F5F5F5F5F5F5F5F5F5F5F5F5F5F5F5F5F5F5F5F5BEBEBEF5BEF5BEF5F5F5F5F5F5F5F5F5F5F5F5F5F5F5F5F5F5F5F5F5F5F5F5F5F5F5F5F5F5F5F5F5F5F5F5F5BEBEBEBEBEBEBEBEBEBEBEBEBEBEBEBEF5BEBEBEBEBEBEBEBEF5F5F5DCF5F5F5E2F5E2E2EF
310
E2F5F5F5F528282828F5F5F5F5F5F5F5F5F5F5F5F5F5F5F5F5F5F5F5F5F5F5F5F5F5F5F5F5F5F5F5F5F5F5F5F5F5F5F5F5F5F5F5F5F5F5F5F5F5F5F5F5F5F5F5F5F5F5F5F5F5F5F5F5F5F5F5F5F5F5F5F5F5F5F5F5F5F5F5F5F5F5F5F5F5F5F5F5F5F5F5F5F5F5D6F5F5F5F5F5F5F5F5F5F5F5F5F5F5F5F5F5F5F5F5F5F5F5
310
F5F5F5F5F5F5F5F5F5F5F5F5F5F5F5BEBEBEBEBEBEBEBEBEBEBEBEBEBEBEBEBEBEBEBEBEBEBEBEBEBEF5F5F5DCF5F5F5F5F5E2E2EFE2F5F5F5F528F5F5DCF5F5F5F5F5F5F5F5F5F5F5F5F5F5F5F5F5F5F5F5F5F5F5F5F5F5F5F5F5F5F5F5F5F5F5F5F5F5F5F5F5F5F5F5F5F5F5F5F5F5F5F5F5F5F5F5F5F5F5F5F5F5F5F5F5
310
F5F5F5F5F5F5F5F5F5F5F5F5F5F5F5F5F5F5F5F5F5F5F5F5F5F5F5F5F5D6F5F5F5F5F5F5F5F5F5F5F5F5F5F5F5F5F5F5F5F5F5F5F5F5F5F5F5F5F5F5F5F5F5F5F5F5F5F5F5F5F5F5F5F5F5F5F5F5F5F5F5F5F5F5F5F5F5F5F5F5F5F5F5F5F5F5F5DCF5F5F5F5F5E2E2EFE2F5F5F5F528F5F5DCF5F5F5F5F5F5F5F5F5F5F5F5
310
F5F5F5F5F5F5F5F5F5F5F5F5F5F5F5F5F5F5F5F5F5F5F5F5F5F5F5F5F5F5F5F5F5F5F5F5F5F5F5F5F5F5F5F5F5F5F5F5F5F5F5F5F5F5F5F5F5F5F5F5F5F5F5F5F5F5F5F5F5F5F5F5F5F5F5F5F5F5F5F5F5D6F5F5F5F5F5F5F5F5F5F5F5F5F5F5F5F5F5F5F5F5F5F5F5F5F5F5F5F5F5F5F5F5F5F5F5F5F5F5F5F5F5F5F5F5F5
310
F5F5F5F5F5F5F5BEF5F5F5F5F5F5F5F5F5F5F5F5F5F5F5DCF5F5F5F5F5E2E2EFE2F5F5F5F528F5F5DCF5F5F5F5F5F5F5F5F5F5F5F5F5F5F5F5F5F5F5F5F5F5F5F5F5F5F5F5F5F5F5F5F5F5F5F5F5F5F5F5F5F5F5F5F5F5F5F5F5F5F5F5F5F5F5F5F5F5F5F5F5F5F5F5F5F5F5F5F5F5F5F5F5F5F5F5F5F5F5F5F5F5F5F5F5F5
310
F5F5F5F5F5F5F5D6F5F5F5F5F5F5F5F5F5F5F5F5F5F5F5F5F5F5F5F5F5F5F5F5F5F5F5F5F5F5F5F5F5F5F5F5F5F5F5F5F5F5F5F5F5F5F5F5F5F5F5F5BEF5F5F5F5F5F5F5F5F5F5F5F5F5F5F5DCF5F5F5F5F5E2E2EFE2F5F5F5F528F5F5DCF5F5F5F5F5F5F5F5F5F5F5F5F5F5F5F5F5F5F5F5F5F5F5F5F5F5F5F5F5F5F5F5F5
310
F5F5F5F5F5F5F5F5F5F5F5F5F5F5F5F5F5F5F5F5F5F5F5F5F5F5F5F5F5F5F5F5F5F5F5F5F5F5F5F5F5F5F5F5F5F5F5F5F5F5F5F5F5F5F5F5F5F5F5F5D6F5F5F5F5F5F5F5F5F5F5F5F5F5F5F5F5F5F5F5F5F5F5F5F5F5F5F5F5F5F5F5F5F5F5BEF5F5F5F5F5F5F5F5F5F5F5F5F5F5F5F5BEF5F5F5F5F5F5F5F5F5F5F5F5F5F5
310
F5F5DCF5F5F5F5F5E2E2EFE2F5F5F5F528F5F5DCF5F5F5F5F5F5F5F5F5F5F5F5F5F5F5F5F5F5F5F5F5F5F5F5F5F5F5F5F5F5F5F5F5F5F5F5F5F5F5F5F5F5F5F5F5F5F5F5F5F5F5F5F5F5F5F5F5F5F5F5F5F5F5F5F5F5F5F5F5F5F5F5F5F5F5F5F5F5F5F5F5F5F5F5F5F5F5F5F5F5F5F5D6F5F5F5F5F5F5F5F5F5F5F5F5F5F5
310
F5F5F5F5F5F5F5F5F5F5F5F5F5F5F5F5F5F5F5F5F5BEF5F5F5F5F5F5F5F5F5F5F5F5F5F5F5F5BEF5F5F5F5F5F5F5F5F5F5F5F5F5F5F5F5DCF5F5F5F5F5E2E2EFE2F5F5F5F528F5F5DCF5F5F5F5F5F5F5F5F5F5F5F5F5F5F5F5F5F5F5F5F5F5F5F5F5F5F5BEF5F5F5F5F5F5F5F5F5F5F5F5F5F5F5F5F5F5F5F5F5F5F5F5F5F5
310
F5F5F5F5F5F5F5F5F5F5F5F5F5F5F5F5F5F5F5F5F5F5F5F5F5F5F5F5F5F5F5F5F5F5F5F5F5F5D6F5F5F5F5F5F5F5F5F5F5F5F5F5F5F5F5F5F5F5F5F5F5F5F5F5F5F5F5F5F5F5F5F5F5F5BEF5F5F5F5F5F5F5F5F5F5F5F5F5F5F5F5BEF5F5F5F5F5F5F5F5F5F5F5F5F5F5F5F5DCF5F5F5F5F5E2E2EFE2F5F5F5F528F5F5DCF5
310
F5F5F5F5F5F5F5F5F5F5F5F5F5F5F5F5F5F5F5F5F5F5F5F5F5F5BEF5F5F5F5F5F5F5F5F5F5F5F5F5F5F5F5F5F5F5F5F5F5F5F5F5F5F5F5F5F5F5F5F5F5F5F5F5F5F5F5F5F5F5F5F5F5F5F5F5F5F5F5F5F5F5F5F5F5F5F5F5F5F5F5D6F5F5F5F5F5F5F5F5F5F5F5F5F5F5F5F5F5F5F5F5F5F5F5F5F5F5F5F5F5F5F5F5F5F5F5
310
BEF5F5F5F5F5F5F5F5F5F5F5F5F5F5F5BEF5F5F5F5F5F5F5F5F5F5F5F5F5F5F5F5F5DCF5F5F5F5F5E2E2EFE2F5F5F5F528F5F5DCF5F5F5F5F5F5F5F5F5F5F5F5F5F5F5F5F5D6D6D6D6D6D6D6D6D6D6D6D6D6D6D6D6D6D6D6D6D6F5F5F5F5F5F5F5F5F5F5F5F5F5F5F5F5F5F5F5F5F5F5F5F5F5F5F5F5F5F5F5F5F5F5F5F5F5
310
F5F5F5F5F5F5F5F5F5F5F5F5F5F5D6D6D6D6F5F5F5F5F5F5F5F5F5F5F5F5F5F5F5F5F5F5F5F5F5F5F5F5D6D6D6D6D6D6D6D6D6D6D6BED6D6D6D6D6D6D6D6D6D6F5F5F5F5F5BEF5F5F5F5F5F5F5F5F5F5F5F5F5F5F5F5F5DCF5F5F5F5F5E2E2EFE2F5E2F5F528F5F5DCF5F5F5F5F5F5F5F5F5F5F5F5F5F5F5D6D6F5D6D6D6D6
310
D6D6D6D6D6D6D6D6D6D6D6D6D6D6D6F5D6D6F5F5F5F5F5F5F5F5F5F5F5F5F5F5F5F5F5F5F5F5F5F5F5F5F5BEBEBEBED6D6D6D6D6D6D6D6D6D6D6D6D6D6D6D6D6D6D6D6D6D6D6D6D6D6D6D6F5F5F5F5F5F5F5F5F5F5F5F5F5F5F5F5F5F5F5D6D6D6D6D6D6D6D6D6D6D6D6BED6D6D6D6D6D6D6D6D6D6D6D6F5F5BEF5F5F5F5F5
310
F5F5F5F5F5F5F5F5F5F5F5F5F5DCF5F5F5E2F5E2E2EFE2F5E2F5F528F5F5DCF5F5F5F5F5F5F5F5F5F5F5F5F5F5D6F5D6D6D6D6D6D6BEBEBEF5F5BEF5BEF5F5BED6D6D6D6D6D6F5D6F5F5F5F5F5F5F5F5F5F5F5F5F5F5F5F5F5F5F5F5F5F5F5F5D6F5F5D6F5F5F5F5F5F5F5F5F5F5F5F5F5F5F5F5F5F5F5F5D6D6D6D6D6D6D6
310
D6F5F5F5F5F5F5F5F5F5F5F5F5F5F5F5F5F5F5D6D6D6D6D6F5D6BEBED6C3C3D6BEBED6D6F5F5F5D6F5F5F5D6F5D6F5BEF5F5F5F5F5F5F5F5F5F5F5F5F5F5F5F5F5F5DCF5F5F5E2F5E2E2EFE2F5E2F5F528F5F5DCF5F5F5F5F5F5F5F5F5F5F5F5F5F5D6D6D6F5F5F5F5F5BEBEBEF5F5BEF5BEBEBEBEF5F5F5F5F5D6D6F5D6F5
310
F5F5F5F5F5F5F5F5F5F5F5F5F5F5F5F5F5F5F5F5F5F5D6F5F5D6F5F5F5F5F5F5F5F5F5F5F5F5F5F5F5F5F5F5F5F5D6D6D6D6F5F5F5D6F5F5F5F5F5F5F5F5F5F5F5F5F5F5F5F5F5D6D6D6F5F5F5D6D6BEBEBEBEF5F5BEF5D6F5F5F5F5D6F5F5F5F5D6D6F5BEF5F5F5F5F5F5F5F5F5F5F5F5F5F5F5F5F5F5DCF5F5F5E2F5E2E2
310
EFE2F5E2F5F528BEBEDCF5F5F5F5F5F5F5F5F5F5F5F5F5F5D6D6D6F5F5F5F5F5F5BEBEF5F5BEF5F5F5F5F5F5F5F5F5F5F5D6F5D6F5F5F5F5F5F5F5F5F5F5F5F5F5F5F5F5F5F5F5F5F5F5F5D6F5F5D6D6D6D6D6D6D6D6D6D6D6D6D6D6D6D6D6D6D6D6D6D6D6D6D6D6D6D6D6F5F5F5F5F5F5F5F5F5F5F5F5F5F5F5F5F5D6D6D6
310
F5F5F5F5D6BEBEBEBEF5F5BEF5D6F5F5F5F5D6F5F5F5F5D6F5BEF5F5F5F5F5F5F5F5F5F5F5F5F5F5F5F5F5F5F5DCF5F5F5E2F5E2E2EFE2F5E2F5F528BEF5DCF5F5F5F5F5F5F5F5F5F5F5F5F5D6F5D6D6F5F5F5D6D6D6D6D6D6D6D6D6D6D6D6D6D6D6D6F5F5F5D6F5D6F5F5F5F5F5F5F5F5F5F5F5F5F5F5F5F5F5F5F5F5F5F5
310
F5D6F5F5D6F5F5F5F5F5F5F5F5F5F5F5F5F5F5F5F5F5F5F5F5D6D6D6D6F5F5F5D6F5F5F5F5F5F5F5F5F5F5F5F5F5F5F5F5F5D6D6D6F5F5F5F5D6BEBEBEBEF5F5BEF5D6F5F5F5F5D6F5F5F5F5D6D6BEF5F5F5F5F5F5F5F5F5F5F5F5F5F5F5F5F5F5F5DCF5F5F5E2F5E2E2EFE2F5E2F5F528BEBEDCF5F5F5F5F5F5F5F5F5F5F5
310
F5F5D6F5D6D6F5F5D6F5F5F5F5F5F5D6BED6F5F5F5F5F5F5D6F5F5F5D6F5D6F5F5F5F5F5F5F5F5F5F5F5F5F5F5F5F5F5F5F5F5F5F5F5D6D6D6D6D6D61BCACAD6D6D6D6D6D6D6D6D6F5F5F5F5F5F5D6D6D6D6F5F5F5D6F5F5F5F5F5F5F5F5F5F5F5F5F5F5F5F5F5D6D6F5D6F5F5F5D6F5BEBEBEF5BEBEBED6CACACACAD6D6D6
310
D6D6D6F5BEF5F5F5F5F5F5F5F5F5F5F5F5F5F5F5F5F5F5F5DCF5F5F5E2F5E2E2EFE2F5E2F5F528F5F5DCF5F5F5F5F5F5F5F5F5F5F5F5F5D6F5D6D6F5F5D6F5F5F5BEF5F5D6BED6F5F5F5BEF5F5F5D6BEBED6F5D6F5F5F5F5F5F5F5F5F5F5F5F5F5F5F5F5F5F5F5F5F5F5F5D6F5F5F5F5F51BD6CAF5F5F5F5F5F5D6F5D6F5F5
310
F5F5F5F5D6D6D6D6F5F5F5D6F5F5F5F5F5F5F5F5F5F5F5F5F5F5F5F5F5D6D6F5F5D6F5D6D6C3BED6D6F5BEBEBED6D6BEBED6F5F5CAD6F5D6BED6F5F5F5F5F5F5F5F5F5F5F5F5F5F5F5F5F5F5F5DCF5F5F5E2F5E2E2EFE2F5E2F5F528F5F5DCF5F5F5F5F5F5F5F5F5F5F5F5F5D6F5D6D6F5F5D6F5F5D6D6D6F5D6BED6F5F51B
310
1BF5F5F5D6BEBED6F5D6F5F5F5F5F5F5F5F5F5F5F5F5F5F5F5F5F5F5F5F5F5F5F5D6F5F5F5F5F51BCACAF5F5F5F5F5F5D6D6D6D6D6D6D6D6D6D6D6D6D6D6D6D6D6F5F5F5F5F5F5F5F5F5F5F5F5F5F5F5F5F5D6D6D6F5F5D6F5D6C3BECACAD6BEBEBEC3C3BECACAD6F5CAD6D6D6BED6F5F5F5F5F5F5F5F5F5F5F5F5F5F5F5F5
310
F5F5F5DCF5F5F5E2F5E2E2EFE2F5E2F5F528F5F5DCF5F5F5F5F5F5F5F5F5F5F5F5F5D6F5D6BEBEF5D6F5BED6BED6F5D6BED6F5D61B1BD6F5F5D6BEBED6F5D6F5F5F5F5F5F5F5F5F5F5F5F5F5F5F5F5F5F5F5F5F5F5F5D6D6D6D6F5F51BCACAF5F5F5F5F5F5D6D6F5F5F5F5F5F5F5D6D6D6D6F5F5F5D6F5F5F5F5F5F5F5F5F5
310
F5F5F5F5F5F5F5F5D6D6D6F5D6F5F5BEBEBEBEBEBEF5BED6BEBEBEBEBEBEF5CAD6D6BEF5D6F5F5F5F5F5F5F5F5F5F5F5F5F5F5F5F5F5F5F5DCF5F5F5E2F5E2E2EFE2F5E2F5F528F5F5DCF5F5F5F5F5F5F5F5F5F5F5F5F51BF5D6BEBEF5D6F5F5D6D6D6F5D6BED6F5F51B1BF5F5F5D6BEBED6F5D6F5F5F5F5F5F5F5F5F5F5F5
310
F5F5F5F5F5F5F5F5F5F5F5F5D6F5F5D6F5F51BCACAF51B1B1B1BF5D6D6F5F5F5F5F5F5F5D6D6D6D6F5F5F5D6F5F5F5F5F5F5F5F5F5F5F5F5F5F5F5F5F5D6D6D6D6BEBEBEBECABEF5C3D6F5BEBE1BCABEF5D6D6F5CAD6D6BEF5D6F5F5F5F5F5F5F5F5F5F5F5F5F5F5F5F5F5F5F5DCF5F5F5E2F5E2E2EFE2F5E2F5F528F5F5DC
310
F5F5F5F5F5F5F5F5F5F5F5F5BE1BF5D6BEBEF5D6F5F5F5BEF5F5D6BED6D6F5F5BEF5F5F5D6BEBED6F5D6F5F5F5F5F5F5F5F5F5F5F5F5F5F5F5F5F5F5F5F5F5F5F5D6F5F5D6F5F51BD6CA1B1B1B1BCAF5D6D6F5F5F5F5F5F5F5D6D6D6D6F5F5F5D6F5F5F5F5F5F5F5F5F5F5F5F5F5F5F5F5F5D6D6D6F5BEBEBEBEC3BEC3D6BE
310
BEBEBED6C3BEC3D6D6F5CAD6D6BECA1B1BF5F5F5F5F5F5F5F5F5F5F5F5F5F5F5F5F5F5DCF5F5F5E2F5E2E2EFE2F5E2F5F528F5F5DCF5F5F5F5F5F5F5F5F5F5F5F5BE1BF5D6BEBEF5F5D6D6D6D6D6D6CA1BCAD6D6D6D6D6D6D6D6BEBED6F5D6F5F5F5F5F5F5F5F5F5F5F5F5F5F5F5F5F5F5F5F5F5F5F5D6F5F51B1B1B1BCACA
310
1BF5BEBE1BCAD6D6F5F5F5F5F5F5F5D6D6D6D6F5F5F5D6F5F5F5F5F5F5F5F5F5F5F5F5F5F5F5F5F5D6D6D6F5F5F5F5F5F5BEF5F5BEBEBEBEF5F5BEF5F5CA1BCA1BBED6CACA1BF5F5F5F5F5F5F5F5F5F5F5F5F5F5F5F5F5F5DCF5F5F5E2F5E2E2EFE2F5E2F5F528F5F5DCF5F5BEBEBEBEBEBEBEBEBEBE1BCABED6BEBEBEBEBE
310
D6BEBEBEBECACACACABEBEBEBEBEBED6BEBED6BED6BEBEBEF5F5F5F5F5F5F5F5F5F5F5F5F5F5F5F5F5F5BEBED6BEBED6D6D6D6D6D61BBEBEBEBE1BD6D6BEBEBEBEBEBEBED6D6D6D6BEBEBED6BEBEF5F5F5F5F5F5F5F5F5F5F5F5F5BEBEBEBEBEBEBEBEBEBEBEBEBEBEBEBEBEBEBEBEBEBEBEBEBEBEBEBEBEBEBEBEBEBEF5F5
310
F5F5F5F5F5F5F5F5F5F5F5F5F5F5DCF5F5F5E2F5E2E2EFE2F5E2F5F528F5F5DCF5F5F5F5F5F5F5F5F5F5F5F51B1BF5D6BEBEF5F5F5D6F5F5F5F5CACACABEF5F5F5F5F5F5D6BEBED6F5D6F5F5F5F5F5F5F5F5F5F5F5F5F5F5F5F5F5F5F5F5F5F5F5D6F5F5D6F5F5F5F5D61BBEBEF5F51BD6D6F5F5F5F5F5F5F5D6D6D6D6F5F5
310
F5D6F5F5F5F5F5F5F5F5F5F5F5F5F5F5F5F5F5D6D6D6F5F5F5F5F5F5F5F5F5BEBEBEBEF5BEF5F5F5D61BD6D6F5CACACA1BF5F5F5F5F5F5F5F5F5F5F5F5F5F5F5F5F5F5DCF5F5F5E2F5E2E2EFE2F5E2F5F528F5F5DCF5F5F5F5F5F5F5F5F5F5F5F51BCAF5D6BEBEF5F5D6D6D6D6D6D6CA1BCAD6D6D6D6D6D6D6D6BEBED6F5D6
310
F5F5F5F5F5F5F5F5F5F5F5F5F5F5F5F5F5F5F5F5F5F5F5D6F5F5D6D6D6D6D6D61B1BBEF51B1BD6D6F5F5F5F5F5F5F5D6D6D6D6F5F5F5D6F5F5F5F5F5F5F5F5F5F5F5F5F5F5F5F5F5D6D6D6F5BEF5BEF5D6BED6F5F5BEBEF5F5BEBEBEBED61BD61BD6D6CA1BBEF5F5F5F5F5F5F5F5F5F5F5F5F5F5F5F5F5F5DCF5F5F5E2F5E2
310
E2EFE2F5E2F5F528F5F5DCF5F5F5F5F5F5F5F5F5F5F5F51B1BF5D6BEBEF5D6F5F5F5BEF5F5D6BED6F5F5F5BEF5F5F5D6BEF5D6F5D6F5F5F5F5F5F5F5F5F5F5F5F5F5F5F5F5F5F5F5F5F5F5F5D6F5F5D6D6D6D6D6D6CACA1B1B1B1BD6D6F5F5F5F5F5F5F5D6D6D6D6F5F5F5D6F5F5F5F5F5F5F5F5F5F5F5F5F5F5F5F5F5D6D6
310
D6F5BEBEF5BEC3BECACABEF5BEBED6C3BECAD6D6D6D6D6D6D6CABE1BF5F5F5F5F5F5F5F5F5F5F5F5F5F5F5F5F5F5DCF5F5F5E2F5E2E2EFE2F5F5F5F528F5F5DCF5F5F5F5F5F5F5F5F5F5F5F5F51BF5D6BEBEF5D6F5F5F51B1BF5D6BED6F5F51B1BF5F5F5D6BEBED6F5D6F5F5F5F5F5F5F5F5F5F5F5F5F5F5F5F5F5F5F5F5F5
310
F5F5D6F5F5D6D6D6D6D6D6D6D6D6D6D6D6D6D6F5F5F5F5F5F5F5D6D6D6D6F5F5F5D6F5F5F5F5F5F5F5F5F5F5F5F5F5F5F5F5F5D6D6D6D6BEBEBED6C3BEF5CAD6BEBED6D6F5BECA1BD6F5D6D6D6D6F5D6F5F5F5F5F5F5F5F5F5F5F5F5F5F5F5F5F5F5F5DCF5F5F5F5F5E2E2EFE2F5F5F5F528F5F5DCF5F5F5F5F5F5F5F5F5F5
310
F5F5F5D6F5D6BEBEF5D6F5F51B1B1BBED6BED6F5D61B1BD6F5F5D6BEBED6F5D6F5F5F5F5F5F5F5F5F5F5F5F5F5F5F5F5F5F5F5F5F5F5F5D6D6D6D6D6D6D6D6D6D6D6D6D6D6D6D6D6F5F5F5F5F5F5F5D6D6D6D6F5F5F5D6F5F5F5F5F5F5F5F5F5F5F5F5F5F5F5F5F5D6D6D6F5D6F5F5BEBEBEBEBEBEBEBEBEBEBEBEBEBED6F5
310
F5F5D6D6F5D6F5F5F5F5F5F5F5F5F5F5F5F5F5F5F5F5F5F5F5DCF5F5F5F5F5E2E2EFE2F5F5F5F528282828F5F5F5F5F5F5F5F5F5F5F5F5F5D6F5D6D6F5F5D6F5F5F51BD6F5D6BED6F5F5D61BF5F5F5D6BEBED6F5D6F5F5F5F5F5F5F5F5F5F5F5F5F5F5F5F5F5F5F5F5F5F5F5D6F5F5D6D6D6D6D6D6D6D6D6D6D6D6D6D6D6D6
310
D6D6D6D6D6D6D6D6D6D6D6D6D6F5F5F5F5F5F5F5F5F5F5F5F5F5F5F5F5F5D6D6D6F5F5D6F5D6C3BEC3C3D6BEBEBECACABEC3D6D6D6F5F5D6D6F5D6F5F5F5F5F5F5F5F5F5F5F5F5F5F5F5F5F5F5F5DCF5F5F5F5F5E2E2EFE2F5F5F5F528F5F5DCF5F5F5F5F5F5F5F5F5F5F5F5F5D6F5D6D6F5F5D6F5F5F5F5F5F5D6BED6F5F5
310
F5F5F5F5F5D6BEBED6F5D6F5F5F5F5F5F5F5F5F5F5F5F5F5F5F5F5F5F5F5F5F5F5F5D6F5F5D6F5F5F5F5F5F5F5F5F5F5F5F5F5F5F5F5F5F5F5F5D6D6D6D6F5F5F5D6F5F5F5F5F5F5F5F5F5F5F5F5F5F5F5F5F5D6D6F5F5D6F5D6D6D6BED6D6F5BEBEBED6C3BE1BD6F5F5D6F5F5D6F5D6F5F5F5F5F5F5F5F5F5F5F5F5F5F5F5
310
F5F5F5F5DCF5F5F5F5F5E2E2EFE2F5F5F5F528F5F5DCF5F5F5F5F5F5F5F5F5F5F5F5F5D6F5D6D6F5F5D6F5F5F5F5F5F5D6BED6F5F5F5F5F5F5D6F5F5F5D6F5D6F5F5F5F5F5F5F5F5F5F5F5F5F5F5F5F5F5F5F5F5F5F5F5D6D6D6D6D6D6D6D6D6D6D6D6D6F5F5F5F5F5F5F5F5F5F5F5D6D6D6D6F5F5F5D6F5F5F5F5F5F5F5F5
310
F5F5F5F5F5F5F5F5F5D6D6F5D6F5F5F5D6BEBEBEBEF5F5F5F5D6D6D6D6F5F5F5F5D6F5D6F5D6F5F5F5F5F5F5F5F5F5F5F5F5F5F5F5F5F5F5F5DCF5F5F5F5F5E2E2EFE2F5F5F5F528F5F5DCF5F5F5F5F5F5F5F5F5F5F5F5F5D6F5D6D6F5F5F5D6D6D6D6D6D6D6D6D6D6D6D6D6D6D6D6F5F5F5D6F5D6F5F5F5F5F5F5F5F5F5F5
310
F5F5F5F5F5F5F5F5F5F5F5F5F5D6F5F5D6D6D6D6D6D6D6D6D6D6D6D6D6D6D6D6D6D6D6D6D6D6D6D6D6F5F5F5D6F5F5F5F5F5F5F5F5F5F5F5F5F5F5F5F5F5D6D6D6F5F5F5F5D6BEBEBEBEF5F5BEF5D6F5F5D6F5F5F5F5F5D6D6D6D6F5F5F5F5F5F5F5F5F5F5F5F5F5F5F5F5F5F5F5DCF5F5F5F5F5E2E2EFE2F5F5F5F528F5F5
310
DCF5F5F5F5F5F5F5F5F5F5F5F5F5F5D6D6D6F5F5F5F5F5F5F5F5F5F5BEF5F5F5F5F5F5F5F5F5F5F5D6F5D6F5F5F5F5F5F5F5F5F5F5F5F5F5F5F5F5F5F5F5F5F5F5F5D6F5F5D6F5F5F5F5F5F5F5D6F5D6D6F5F5F5F5F5F5F5F5F5D6D6D6D6D6D6D6D6F5F5F5F5F5F5F5F5F5F5F5F5F5F5F5F5F5D6D6D6F5F5F5F5D6BEBEBEBE
310
F5F5BEF5D6F5F5F5D6F5F5F5F5D6D6F5D6F5F5F5F5F5F5F5F5F5F5F5F5F5F5F5F5F5F5F5DCF5F5F5F5F5E2E2EFE2F5F5F5F528F5F5DCF5F5F5F5F5F5F5F5F5F5F5F5F5F5D6BED6D6F5F5F5F5F5BEF5F5BEBEF5BEF5BEBEF5F5F5F5F5D6BEF5D6F5F5F5F5F5F5F5F5F5F5F5F5F5F5F5F5F5F5F5F5F5F5F5D6F5F5D6F5F5F5F5
310
F5F5F5D6F5D6D6F5F5F5F5F5F5F5F5F5D6D6D6D6F5F5F5D6F5F5F5F5F5F5F5F5F5F5F5F5F5F5F5F5F5D6D6D6F5F5F5D6D6BEBEBEBED6D6BEF5D6F5F5F5F5D6F5F5F5D6D6D6F5F5F5F5F5F5F5F5F5F5F5F5F5F5F5F5F5F5F5F5DCF5F5F5F5F5E2E2EFE2F5E2F5F528F5F5DCF5F5F5F5F5F5F5F5F5F5F5F5F5F5D6BEF5D6D6D6
310
D6D6F5BEBEBEBEBEF5BEBEBEBED6D6D6D6D6F5BED6F5F5F5F5F5F5F5F5F5F5F5F5F5F5F5F5F5F5F5F5F5F5F5F5D6F5F5D6D6D6D6D6D6D6D6D6D6D6D6F5F5F5F5F5F5F5F5F5D6D6D6D6D6D6D6D6F5F5F5F5F5F5F5F5F5F5F5F5F5F5F5F5F5F5D6D6D6D6D6F5D6BEBED6F5F5D6BEBED6F5F5F5F5F5D6D6D6D6F5D6F5F5F5F5F5
310
F5F5F5F5F5F5F5F5F5F5F5F5F5F5F5DCF5F5F5E2F5E2E2EFE2F5E2F5F528F5F5DCF5F5F5F5F5F5F5F5F5F5F5F5F5F5F5D6F5F5F5F5F5D6D6D6D6D6D6D6D6D6D6D6D6D6F5F5F5F5F5D6F5F5F5F5F5F5F5F5F5F5F5F5F5F5F5F5F5F5F5F5F5F5F5F5F5D6D6D6D6D6D6D6D6D6D6D6D6D6D6D6D6D6D6D6D6D6D6D6D6D6D6D6D6D6
310
D6D6D6F5F5F5F5F5F5F5F5F5F5F5F5F5F5F5F5F5F5F5D6D6D6D6D6D6D6D6D6D6D6D6BED6D6D6D6D6D6D6D6D6D6F5D6F5F5F5F5F5F5F5F5F5F5F5F5F5F5F5F5F5F5F5F5F5DCF5F5F5E2F5E2E2EFE2F5E2F5F528F5F5DCF5F5F5F5F5F5F5F5F5F5F5F5F5F5F5BED6D6D6D6D6D6D6D6D6D6D6D6D6D6D6D6D6D6D6D6D6D6D6BEF5
310
F5F5F5F5F5F5F5F5F5F5F5F5F5F5F5F5F5F5F5F5F5F5F5F5BEF5F5F5F5F5F5F5F5F5F5F5F5F5F5F5F5F5F5F5F5F5F5F5D6D6D6D6F5F5F5BEF5F5F5F5F5F5F5F5F5F5F5F5F5F5F5F5F5F5F5F5D6D6D6D6D6D6D6D6D6D6D6BED6D6D6D6D6D6D6D6D6D6D6F5F5F5F5F5F5F5F5F5F5F5F5F5F5F5F5F5F5F5F5F5F5DCF5F5F5E2F5
310
E2E2EFE2F5E2F5F528F5F5DCF5F5F5F5F5F5F5F5F5F5F5F5F5F5F5BEF5F5F5F5F5F5F5F5F5F5F5BEF5F5F5F5F5F5F5F5F5F5F5BEF5F5F5F5F5F5F5F5F5F5F5F5F5F5F5F5F5F5F5F5F5F5F5F5F5BEF5F5F5F5F5F5F5F5F5F5F5F5F5F5F5F5F5F5F5F5F5F5F5F5F5F5F5F5F5F5BEF5F5F5F5F5F5F5F5F5F5F5F5F5F5F5F5F5F5
310
F5F5F5F5F5F5F5F5F5F5F5F5F5BEF5F5F5F5F5F5F5F5F5F5F5F5F5F5F5F5F5F5F5F5F5F5F5F5F5F5F5F5F5F5F5F5F5DCF5F5F5E2F5E2E2EFE2F5E2F5F528F5F5DCF5F5F5F5F5F5F5F5F5F5F5F5F5F5F5BEF5F5F5F5F5F5F5F5F5F5F5BEF5F5F5F5F5F5F5F5F5F5F5BEF5F5F5F5F5F5F5F5F5F5F5F5F5F5F5F5F5F5F5F5F5F5
310
F5F5F5BEF5F5F5F5F5F5F5F5F5F5F5F5F5F5F5F5F5F5F5F5F5F5F5F5F5F5F5F5F5F5BEF5F5F5F5F5F5F5F5F5F5F5F5F5F5F5F5F5F5F5F5F5F5F5F5F5F5F5F5F5F5F5BEF5F5F5F5F5F5F5F5F5F5F5F5F5F5F5F5F5F5F5F5F5F5F5F5F5F5F5F5F5F5F5F5F5DCF5F5F5E2F5E2E2EFE2F5E2F5F528F5F5DCF5F5F5F5F5F5F5F5F5
310
F5F5F5F5F5F5BEF5F5F5F5F5F5F5F5F5F5F5F5F5F5F5F5F5F5F5F5F5F5F5BEF5F5F5F5F5F5F5F5F5F5F5F5F5F5F5F5F5F5F5F5F5F5F5F5F5BEF5F5F5F5F5F5F5F5F5F5F5F5F5F5F5F5F5F5F5F5F5F5F5F5F5F5F5F5F5F5BEF5F5F5F5F5F5F5F5F5F5F5F5F5F5F5F5F5F5F5F5F5F5F5F5F5F5F5F5F5F5F5F5F5F5F5F5F5F5F5
310
F5F5F5F5F5F5F5F5F5F5F5F5F5F5F5F5F5F5F5F5F5F5F5F5F5F5DCF5F5F5E2F5E2E2EFE2F5E2F5F528F5F5DCF5F5F5F5F5F5F5F5F5F5F5F5F5F5F5BEF5F5F5F5F5F5F5F5F5F5F5F5F5F5F5F5F5F5F5F5F5F5F5BEF5F5F5F5F5F5F5F5F5F5F5F5F5F5F5F5F5F5F5F5F5F5F5F5F5BEF5F5F5F5F5F5F5F5F5F5F5F5F5F5F5F5F5
310
F5F5F5F5F5F5F5F5F5F5F5F5F5BEF5F5F5F5F5F5F5F5F5F5F5F5F5F5F5F5F5F5F5F5F5F5F5F5F5F5F5F5F5F5F5F5F5F5F5F5F5F5F5F5F5F5F5F5F5F5F5F5F5F5F5F5F5F5F5F5F5F5F5F5F5F5F5F5F5DCF5F5F5E2F5E2E2EFE2F5E2F5F528F5F5DCF5F5F5F5F5F5F5F5F5F5F5F5F5F5F5BEF5BEF5F5F5F5F5F5F5F5F5F5F5F5
310
F5F5F5F5F5F5F5F5BEBEF5F5F5F5F5F5F5F5F5F5F5F5F5F5F5F5F5F5F5F5F5F5F5F5F5BEBEBEBEBEBEBEBEBEBEBEBEBEBEBEBEBEBEBEBEBEBEBEBEBEBEBEBEBEBEBEBEF5F5F5F5F5F5F5F5F5F5F5F5F5F5F5F5F5F5F5F5F5F5F5F5F5F5F5F5F5F5F5F5F5F5F5F5F5F5F5F5F5F5F5F5F5F5F5F5F5F5F5F5F5F5F5F5F5F5F5F5
310
F5F5F5F5F5DCF5F5F5E2F5E2E2EFE2F5E2F5F528BEBEDCF5F5F5F5F5F5F5F5F5F5F5F5F5F5F5BEBEBEBEBEBEBEBEBEBEBEBEBEBEBEBEBEBEBEBEBEBEBEBEBEF5F5F5F5F5F5F5F5F5F5F5F5F5F5F5F5F5F5F5F5F5F5F5F5F5BEF5F5F5F5F5F5F5F5F5F5F5F5F5BEBEBEF5F5F5F5F5F5F5F5F5F5F5F5F5F5BEF5F5F5F5F5F5F5
310
F5F5F5F5F5F5F5F5F5F5F5F5F5F5F5F5F5F5F5F5F5F5F5F5F5F5F5F5F5F5F5F5F5F5F5F5F5F5F5F5F5F5F5F5F5F5F5F5F5F5F5F5F5F5F5F5F5F5DCF5F5F5E2F5E2E2EFE2F5E2F5F528BEBEDCF5F5F5F5F5F5F5F5F5F5F5F5F5F5F5BEF5F5F5F5F5F5F5F5F5BEF5F5BEBEBEF5F5F5F5F5F5F5F5BEF5F5F5F5F5F5F5F5F5F5F5
310
F5F5F5F5F5F5F5F5F5F5F5F5F5F5F5F5F5F5F5F5F5F5F5F5F5F5F5F5BEBEBEF5F5F5F5F5F5F5F5F5F5F5F5F5F5F5F5F5F5F5F5F5F5F5F5F5F5F5F5F5F5F5F5F5F5F5F5F5F5F5F5F5F5F5F5F5F5F5F5F5F5F5F5F5F5F5F5F5F5F5F5F5F5F5F5F5F5F5F5F5F5F5F5F5F5F5F5F5F5F5F5DCF5F5F5E2F5E2E2EFE2F5E2F5F528F5
310
F5DCF5F5F5F5F5F5F5F5F5F5F5F5F5F5F5F5F5F5F5F5F5F5F5F5F5BEBEF5BEBEBEF5F5F5F5F5F5F5F5F5F5F5F5F5F5F5F5F5F5F5F5F5F5F5F5F5F5F5F5F5F5F5F5F5F5F5F5F5F5F5F5F5F5F5F5F5F5F5F5F5F5F5F5F5F5F5F5F5F5F5F5F5F5F5F5F5F5F5F5F5F5F5F5F5F5F5F5F5F5F5F5F5F5F5F5F5F5F5F5F5F5F5F5F5F5
310
F5F5F5F5F5F5F5F5F5F5F5F5F5F5F5F5F5F5F5F5F5F5F5F5F5F5F5F5F5F5F5F5F5F5F5F5F5DCF5F5F5E2F5E2E2EFE2F5E2F5F528F5F5DCF5F5F5F5F5F5F5F5F5F5F5F5F5F5F5F5F5F5F5F5F5F5F5F5F5F5F5F5F5F5F5F5F5F5F5F5F5F5F5F5F5F5F5F5F5F5F5F5F5F5F5F5F5F5F5F5F5F5F5F5F5F5F5F5F5F5F5F5F5F5F5F5
310
F5F5F5F5F5F5F5F5F5F5F5F5F5F5F5F5F5F5F5F5F5F5F5F5F5F5F5F5F5F5F5F5F5F5F5F5F5F5F5F5F5F5F5F5F5F5F5F5F5F5F5F5F5F5F5F5F5F5F5F5F5F5F5F5F5F5F5F5F5F5F5F5F5F5F5F5F5F5F5F5F5F5F5F5F5F5F5F5F5F5DCF5F5F5E2F5E2E2EFE2F5E2F5F528F5F5DCF5F5F5F5F5F5F5F5F5F5F5F5F5F5F5F5F5F5F5
310
F5F5F5F5F5F5F5F5F5F5F5F5F5F5F5F5F5F5F5F5F5F5F5F5F5F5F5F5F5F5F5F5F5F5F5F5F5F5F5F5F5F5F5F5F5F5F5F5F5F5F5F5F5F5F5F5F5F5F5F5F5F5F5F5F5F5F5F5F5F5F5F5F5F5F5F5F5F5F5F5F5F5F5F5F5F5F5F5F5F5F5F5F5F5F5F5F5F5F5F5F5F5F5F5F5F5F5F5F5F5F5F5F5F5F5F5F5F5F5F5F5F5F5F5F5F5F5
310
F5F5F5F5F5F5F5F5F5F5F5F5F5F5F5F5DCF5F5F5E2F5E2E2EFE2F5E2F5F528F5F5DCF5F5F5F5F5F5F5F5F5F5F5F5F5F5F5F5F5F5F5F5F5F5F5F5F5F5F5F5F5F5F5F5F5F5F5F5F5F5F5F5F5F5F5F5F5F5F5F5F5F5F5F5F5F5F5F5F5F5F5F5F5F5F5F5F5F5F5F5F5F5F5F5F5F5F5F5F5F5F5F5F5F5F5F5F5F5F5F5F5F5F5F5F5
310
F5F5F5F5F5F5F5F5F5F5F5F5F5F5F5F5F5F5F5F5F5F5F5F5F5F5F5F5F5F5F5F5F5F5F5F5F5F5F5F5F5F5F5F5F5F5F5F5F5F5F5F5F5F5F5F5F5F5F5F5F5F5F5F5F5F5F5F5F5DCF5F5F5E2F5E2E2EFE2F5E2F5F528F5F5DCF5F5F5F5F5F5F5F5F5F5F5F5F5F5F5F5F5F5F5F5F5F5F5F5F5F5F5F5F5F5F5F5F5F5F5F5F5F5F5F5
310
F5F5F5F5F5F5F5F5F5F5F5F5F5F5F5F5F5F5F5F5F5F5F5F5F5F5F5F5F5F5F5F5F5F5F5F5F5F5F5F5F5F5F5F5F5F5F5F5F5F5F5F5F5F5F5F5F5F5F5F5F5F5F5F5F5F5F5F5F5F5F5F5F5F5F5F5F5F5F5F5F5F5F5F5F5F5F5F5F5F5F5F5F5F5F5F5F5F5F5F5F5F5F5F5F5F5F5F5F5F5F5F5F5F5F5F5F5F5F5F5F5F5DCF5F5F5E2
310
F5E2E2EFE2F5E2F5F528F5F5DCF5F5F5F5F5F5F5F5F5F5F5F5F5F5F5F5F5F5F5F5F5F5F5F5F5F5F5F5F5F5F5F5F5F5F5F5F5F5F5F5F5F5F5F5F5F5F5F5F5F5F5F5F5F5F5F5F5F5F5F5F5F5F5F5F5F5F5F5F5F5F5F5F5F5F5F5F5F5F5F5F5F5F5F5F5F5F5F5F5F5F5F5F5F5F5F5F5F5F5F5F5F5F5F5F5F5F5F5F5F5F5F5F5F5
310
F5F5F5F5F5F5F5F5F5F5F5F5F5F5F5F5F5F5F5F5F5F5F5F5F5F5F5F5F5F5F5F5F5F5F5F5F5F5F5F5F5F5F5F5F5F5F5F5DCF5F5F5E2F5E2E2EFE2F5F5F5F528F5F5DCF5F5F5F5F5F5F5F5F5F5F5F5F5F5F5F5F5F5F5F5F5F5F5F5F5F5F5F5F5F5F5F5F5F5F5F5F5F5F5F5F5F5F5F5F5F5F5F5F5F5F5F5F5F5F5F5F5F5F5F5F5
310
F5F5F5F5F5F5F5F5F5F5F5F5F5F5F5F5F5F5F5F5F5F5F5F5F5F5F5F5F5F5F5F5F5F5F5F5F5F5F5F5F5F5F5F5F5F5F5F5F5F5F5F5F5F5F5F5F5F5F5F5F5F5F5F5F5F5F5F5F5F5F5F5F5F5F5F5F5F5F5F5F5F5F5F5F5F5F5F5F5F5F5F5F5F5F5F5F5F5F5F5F5DCF5F5F5F5F5E2E2EFE2F5F5F5F528F5F5DCF5F5F5F5F5F5F5F5
310
F5F5F5F5F5F5F5F5F5F5F5F5F5F5F5F5F5F5F5F5F5F5F5F5F5F5F5F5F5F5F5F5F5F5F5F5F5F5F5F5F5F5F5F5F5F5F5F5F5F5F5F5F5F5F5F5F5F5F5F5F5F5F5F5F5F5F5F5F5F5F5F5F5F5F5F5F5F5F5F5F5F5F5F5F5F5F5F5F5F5F5F5F5F5F5F5F5F5F5F5F5F5F5F5F5F5F5F5F5F5F5F5F5F5F5F5F5F5F5F5F5F5F5F5F5F5F5
310
F5F5F5F5F5F5F5F5F5F5F5F5F5F5F5F5F5F5F5F5F5F5F5F5F5F5F5DCF5F5F5F5F5E2E2EFE2F5F5F5F528F5F5DCF5F5F5F5F5F5F5F5F5F5F5F5F5F5F5F5F5F5F5F5F5F5F5F5F5F5F5F5F5F5F5F5F5F5F5F5F5F5F5F5F5F5F5F5F5F5F5F5F5F5F5F5F5F5F5F5F5F5F5F5F5F5F5F5F5F5F5F5F5F5F5F5F5F5F5F5F5F5F5F5F5F5
310
F5F5F5F5F5F5F5F5F5F5F5F5F5F5F5F5F5F5F5F5F5F5F5F5F5F5F5F5F5F5F5F5F5F5F5F5F5F5F5F5F5F5F5F5F5F5F5F5F5F5F5F5F5F5F5F5F5F5F5F5F5F5F5F5F5F5F5F5F5F5F5F5F5F5F5F5F5F5F5F5DCF5F5F5F5F5E2E2EFE2F5F5F5F528F5F5DCF5F5F5F5F5F5F5F5F5F5F5F5F5F5F5F5F5F5F5F5F5F5F5F5F5F5F5F5F5
310
F5F5F5F5F5F5F5F5F5F5F5F5F5F5F5F5F5F5F5F5F5F5F5F5F5F5F5F5F5F5F5F5F5F5F5F5F5F5F5F5F5F5F5F5F5F5F5F5F5F5F5F5F5F5F5F5F5F5F5F5F5F5F5F5F5F5F5F5F5F5F5F5F5F5F5F5F5F5F5F5F5F5F5F5F5F5F5F5F5F5F5F5F5F5F5F5F5F5F5F5F5F5F5F5F5F5F5F5F5F5F5F5F5F5F5F5F5F5F5F5F5F5F5F5F5F5F5
310
F5F5F5F5F5F5DCF5F5F5F5F5E2E2EFE2F5F5F5F528F5F5DCF5F5F5F5F5F5F5F5F5F5F5F5F5F5F5F5F5F5F5F5F5F5F5F5F5F5F5F5F5F5F5F5F5F5F5F5F5F5F5F5F5F5F5F5F5F5F5F5F5F5F5F5F5F5F5F5F5F5F5F5F5F5F5F5F5F5F5F5F5F5F5F5F5F5F5F5F5F5F5F5F5F5F5F5F5F5F5F5F5F5F5F5F5F5F5F5F5F5F5F5F5F5F5
310
F5F5F5F5F5F5F5F5F5F5F5F5F5F5F5F5F5F5F5F5F5F5F5F5F5F5F5F5F5F5F5F5F5F5F5F5F5F5F5F5F5F5F5F5F5F5F5F5F5F5F5F5F5F5F5F5F5F5F5DCF5F5F5F5F5E2E2EFE2F5F5F5F528F5F52828282828282828282828282828BEBE282828282828282828282828282828282828282828282828282828282828BEBE282828
310
2828282828282828282828282828282828282828282828282828282828BE2828282828282828282828282828282828282828282828282828282828282828BEBE2828282828282828282828282828282828282828282828282828282828282828BE282828282828282828282828282828DCF5F5F5F5F5E2E2EFE2F5F5F5F528
310
F5F5DCF5F5F5F5F5F5F5F5F5F5F5F5F5BEBEF5F5F5F5F5F5F5F5F5F5F5F5F5F528F5F5F5F5F5F5F5F5F5F5F5F5F5F5F5F5BEF5F5F5F5F5F5F5F5F5F5F5F5F5F5F528F5F5F5F5F5F5F5F5F5F5F5F5F5F5F5F5BEF5F5F5F5F5F5F5F5F5F5F5F5F5F5F5F528F5F5F5F5F5F5F5F5F5F5F5F5F5F5F5F5BEF5F5F5F5F5F5F5F5F5F5
310
F5F5F5F5F528F5F5F5F5F5F5F5F5F5F5F5F5F5F5F5BEBEF5F5F5F5F5F5F5F5F5F5F5F5F5F5F5DCF5F5F5F5F5E2E2EFE2F5F5F5F528282828DCDCDCDCDCDCDCDCDCDCDCDCDCBEBEDCDCDCDCDCDCDCDCDCDCDCDCDCDC28DCDCDCDCDCDCDCDCDCDCDCDCDCDCDCDCBEDCDCDCDCDCDCDCDCDCDCDCDCDCDCDC28DCDCDCDCDCDCDCDC
310
DCDCDCDCDCDCDCDCBEDCDCDCDCDCDCDCDCDCDCDCDCDCDCDCDC28DCDCDCDCDCDCDCDCDCDCDCDCDCDCDCBEBEDCDCDCDCDCDCDCDCDCDCDCDCDCDCDC28DCDCDCDCDCDCDCDCDCDCDCDCDCDCDCDCBEDCDCDCDCDCDCDCDCDCDCDCDCDCDCDCDCF5F5F5F5F5E2E2EFE2F5F5F5F5F5F5F5F5F5F5F5F5F5F5F5F5F5F5F5F5F5F5F5F5F5F5
310
F5F5F5F5F5F5F5F5F5F5F5F5F5F5F5F5F5F5F5F5F5F5F5F5F5F5F5F5F5F5F5F5F5F5F5F5F5F5F5F5F5F5F5F5F5F5F5BEBEBEBEBEBEBEBEBEBEBEBEBEBEBEBEBEBEBEBEBEBEBEBEBEBEBEF5F5F5F5F5F5F5F5F5F5F5F5F5F5F5F5F5F5F5F5F5F5F5F5F5F5F5F5F5F5F5F5F5F5F5F5F5F5F5F5F5F5F5F5F5F5F5F5F5F5F5F5F5
310
F5F5F5F5F5F5F5F5F5F5F5F5F5F5F5F5F5F5F5F5F5F5F5E2E2EFE2F5E2F5F5F5F5F5F5F5F5F5F5F5F5F5F5F5F5F5F5F5F5F5F5F5F5F5F5F5F5F5F5F5F5F5F5F5F5F5F5F5F5F5F5F5F5F5F5F5F5F5F5F5F5F5F5F5F5F5F5F5F5F5F5F5F5F5F5F5F5F5F5F5BEBEBEBEBEBEBEBEBEBEBEBEBEBEBEBEBEBEBEBEBEBEBEBEBEBEBE
310
F5F5F5F5F5F5F5F5F5F5F5F5F5F5F5F5F5F5F5F5F5F5F5F5F5F5F5F5F5F5F5F5F5F5F5F5F5F5F5F5F5F5F5F5F5F5F5F5F5F5F5F5F5F5F5F5F5F5F5F5F5F5F5F5F5F5F5F5F5F5F5F5F5F5E2F5E2E2EFE2F5E2F5F5F5F5F5F5F5F5F5F5F5F5F5F5F5F5F5F5F5F5F5F5F5F5F5F5F5F5F5F5F5F5F5F5F5F5F5F5F5F5F5F5F5F5F5
310
F5F5F5F5F5F5F5F5F5F5F5F5F5F5F5F5F5F5F5F5F5F5F5F5F5F5F5F5F5F5F5F5F5F5F5F5F5F5F5F528F5F5F5F5F5F5F5F5F5F5F5F5F5F5F5F5F5F5F5F5F5F5F5F5F5F5F5F5F5F5F5F5F5F5F5F5F5F5F5F5F5F5F5F5F5F5F5F5F5F5F5F5F5F5F5F5F5F5F5F5F5F5F5F5F5F5F5F5F5F5F5F5F5F5F5F5F5F5F5F5F5F5F5F5F5F5
310
E2F5E2E2EFE2F5E2F5F5F5F5F5F5F5F5F5F5F5F5F5F5F5F5F5F5F5F5F5F5F5F5F5F5F5F5F5F5F5F5F5F5F5F5F5F5F5F5F5F5F5F5F5F5F5F5F5F5F5F5F5F5F5F5F5F5F5F5F5F5F5F5F5F5F5F5F5F5F5F5F5F5F5F5F5F5F5F5F5F5F5F5F528F5F5F5F5F5F5F5F5F5F5F5F5F5F5F5F5F5F5F5F5F5F5F5F5F5F5F5F5F5F5F5F5F5
310
F5F5F5F5F5F5F5F5F5F5F5F5F5F5F5F5F5F5F5F5F5F5F5F5F5F5F5F5F5F5F5F5F5F5F5F5F5F5F5F5F5F5F5F5F5F5F5F5F5F5F5F5F5E2F5E2E2EFE2F5E2F5F5F5F5F5F5F5F5F5F5F5F5F5F5F5F5F5F5F5F5F5F5F5F5F5F5F5F5F5F5F5F5F5F5F5F5F5F5F5F5F5F5F5F5F5F5F5F5F5F5F5F5F5F5F5F5F5F5F5F5F5F5F5F5F5F5
310
F5F5F5F5F5F5F5F5F5F5F5F5F5F5F5F5F5F5F528F5F5F5F5F5F5F5F5F5F5F5F5F5F5F5F5F5F5F5F5F5F5F5F5F5F5F5F5F5F5F5F5F5F5F5F5F5F5F5F5F5F5F5F5F5F5F5F5F5F5F5F5F5F5F5F5F5F5F5F5F5F5F5F5F5F5F5F5F5F5F5F5F5F5F5F5F5F5F5F5F5F5F5F5F5F5E2F5E2E2EFE2F5E2F5F5F5F5F5F5F5F5F5F5F5F5F5
310
F5F5F5F5F5F5F5F5F5F5F5F5F5F5F5F5F5F5F5F5F5F5F5F5F5F5F5F5F5F5F5F5F5F5F5F5F5F5F5F5F5F5F5F5F5F5F5F5F5F5F5F5F5F5F5F5F5F5F5F5F5F5F5F5F5F5F5F5F5F5F5F528F5F5F5F5F5F5F5F5F5F5F5F5F5F5F5F5F5F5F5F5F5F5F5F5F5F5F5F5F5F5F5F5F5F5F5F5F5F5F5F5F5F5F5F5F5F5F5F5F5F5F5F5F5F5
310
F5F5F5F5F5F5F5F5F5F5F5F5F5F5F5F5F5F5F5F5F5F5F5F5F5F5F5F5F5F5F5F5E2F5E2E2EFE2F5E2F5F5F5F5F5F5F5F5F5F5F5F5F5F5F5F5F5F5F5F5F5F5F5F5F5F5F5F5F5F5F5F5F5F5F5F5F5F5F5F5F5F5F5F5F5F5F5F5F5F5F5F5F5F5F5F5F5F5F5F5F5F5F5F5F5F5F5F5F5F5F5F5F5F5F5F5F5F5F5F5F5F5F5F5F528F5
310
F5F5F5F5F5F5F5F5F5F5F5F5F5F5F5F5F5F5F5F5F5F5F5F5F5F5F5F5F5F5F5F5F5F5F5F5F5F5F5F5F5F5F5F5F5F5F5F5F5F5F5F5F5F5F5F5F5F5F5F5F5F5F5F5F5F5F5F5F5F5F5F5F5F5F5F5F5F5F5F5F5F5F5F5F5E2F5E2E2EFE2F5E2F5F5F5F5F5F5F5F5F5F5F5F5F5F5F5F5F5F5F5F5F5F5F5F5F5F5F5F5F5F5F5F5F5F5
310
F5F5F5F5F5F5F5F5F5F5F5F5F5F5F5F5F5F5F5F5F5F5F5F5F5F5F5F5F5F5F5F5F5F5F5F5F5F5F5F5F5F5F5F5F5F5F5F5F5F5F528F5F5F5F5F5F5F5F5F5F5F5F5F5F5F5F5F5F5F5F5F5F5F5F5F5F5F5F5F5F5F5F5F5F5F5F5F5F5F5F5F5F5F5F5F5F5F5F5F5F5F5F5F5F5F5F5F5F5F5F5F5F5F5F5F5F5F5F5F5F5F5F5F5F5F5
310
F5F5F5F5F5F5F5F5F5F5F5E2F5E2E2EFE2F5E2E2E2E2E2E2E2E2F5F5F5F5F5F5F5F5F5E2E2E2E2E2E2E2E2E2E2E2E2E2E2E2E2F5F5F5F5F5F5F5F5F5E2E2E2E2E2E2E2E2E2E2E2E2E2E2E2E2F5F5F5F5F5F5F5F5F5E2E2E2E2E2E2E2E2E2E2E2E2E2E2E2E2F5F5F5F5F5F5F5F5E2E2E2E2E2E2E2E2E2E2E2E2E2E2E2E2F5F5
310
F5F5F5F5F5F5F5E2E2E2E2E2E2E2E2E2E2E2E2E2E2E2E2F5F5F5F5F5F5F5F5F5E2E2E2E2E2E2E2E2E2E2E2E2E2E2E2E2F5F5F5F5F5F5F5F5F5E2E2E2E2E2E2E2E2F5E2E2EFE2F5F5F5F5F5F5F5F5F5F5F5F5F5F5F5F5F5F5F5F5F5F5F5F5F5F5F5F5F5F5F5F5F5F5F5F5F5F5F5F5F5F5F5F5F5F5F5F5F5F5F5F5F5F5F5F5F5
310
F5F5F5F5F5F5F5F5F5F5F5F5F5F5F5F5F5F5F5F5F5F5F5F5F5F5F5F5F5F5F5F5F5F5F5F5F5F5F5F5F5F5F5F5F5F5F5F5F5F5F5F5F5F5F5F5F5F5F5F5F5F5F5F5F5F5F5F5F5F5F5F5F5F5F5F5F5F5F5F5F5F5F5F5F5F5F5F5F5F5F5F5F5F5F5F5F5F5F5F5F5F5F5F5F5F5F5F5F5F5F5F5F5F5F5F5F5F5F5E2EFEFE2E2E2E2E2
310
E2E2E2E2E2E2E2E2E2E2E2E2E2E2E2E2E2E2E2E2E2E2E2E2E2E2E2E2E2E2E2E2E2E2E2E2E2E2E2E2E2E2E2E2E2E2E2E2E2E2E2E2E2E2E2E2E2E2E2E2E2E2E2E2E2E2E2E2E2E2E2E2E2E2E2E2E2E2E2E2E2E2E2E2E2E2E2E2E2E2E2E2E2E2E2E2E2E2E2E2E2E2E2E2E2E2E2E2E2E2E2E2E2E2E2E2E2E2E2E2E2E2E2E2E2E2E2
310
E2E2E2E2E2E2E2E2E2E2E2E2E2E2E2E2E2E2E2E2E2E2E2E2E2E2E2E2E2E2E2E2E2E2E2E2E2E2E2E2E2E2E2E2E2E2EFEF
  0
XRECORD
  5
229
102
{ACAD_REACTORS
330
228
102
}
330
228
100
AcDbXrecord
280
     1
102
MATERIAL
148
0.0
149
0.0
149
0.0
 93
        0
 94
       63
282
     0
 72
     1
 77
     1
171
     1
175
     1
179
     1
273
     0
  0
XRECORD
  5
227
102
{ACAD_REACTORS
330
226
102
}
330
226
100
AcDbXrecord
280
     1
102
MATERIAL
148
0.0
149
0.0
149
0.0
 93
        0
 94
       63
282
     0
 72
     1
 77
     1
171
     1
175
     1
179
     1
273
     0
  0
XRECORD
  5
221
102
{ACAD_REACTORS
330
220
102
}
330
220
100
AcDbXrecord
280
     1
102
MATERIAL
148
0.0
149
0.0
149
0.0
 93
        0
 94
       63
282
     0
 72
     0
 77
     0
171
     0
175
     0
179
     0
273
     0
  0
XRECORD
  5
255
102
{ACAD_REACTORS
330
254
102
}
330
254
100
AcDbXrecord
280
     1
102
ACAD_ROUNDTRIP_PRE2007_TABLESTYLE
 90
        4
 91
        0
  1

 92
        4
 93
        0
  2

 94
        4
 95
        0
  3

  0
XRECORD
  5
29
102
{ACAD_REACTORS
330
28
102
}
330
28
100
AcDbXrecord
280
     1
102
RTVSPropertyOp0
 70
     1
102
RTVSPropertyOp1
 70
     1
102
RTVSPropertyOp2
 70
     1
102
RTVSPropertyOp3
 70
     1
102
RTVSPropertyOp4
 70
     1
102
RTVSPropertyOp5
 70
     1
102
RTVSPropertyOp6
 70
     1
102
RTVSPropertyOp7
 70
     1
102
RTVSPropertyOp8
 70
     1
102
RTVSPropertyOp9
 70
     1
102
RTVSPropertyOp10
 70
     1
102
RTVSPropertyOp11
 70
     1
102
RTVSPropertyOp12
 70
     1
102
RTVSPropertyOp13
 70
     1
102
RTVSPropertyOp14
 70
     1
102
RTVSPropertyOp15
 70
     1
102
RTVSPropertyOp16
 70
     1
102
RTVSPropertyOp17
 70
     1
102
RTVSPropertyOp18
 70
     1
102
RTVSPropertyOp19
 70
     1
102
RTVSPropertyOp20
 70
     1
102
RTVSPropertyOp21
 70
     1
102
RTVSPropertyOp22
 70
     1
102
RTVSPropertyOp23
 70
     1
102
RTVSPropertyOp24
 70
     1
102
RTVSPropertyOp25
 70
     1
102
RTVSPropertyOp26
 70
     1
102
RTVSPropertyOp27
 70
     1
102
RTVSPropertyOp28
 70
     1
102
RTVSPropertyOp29
 70
     1
102
RTVSPropertyOp30
 70
     1
102
RTVSPropertyOp31
 70
     1
102
RTVSPropertyOp32
 70
     1
102
RTVSPropertyOp33
 70
     1
102
RTVSPropertyOp34
 70
     1
102
RTVSPropertyOp35
 70
     1
102
RTVSPropertyOp36
 70
     1
102
RTVSPropertyOp37
 70
     1
102
RTVSPropertyOp38
 70
     1
102
RTVSPropertyOp39
 70
     1
102
RTVSPropertyOp40
 70
     1
102
RTVSPropertyOp41
 70
     1
102
RTVSPropertyOp42
 70
     1
102
RTVSPropertyOp43
 70
     1
102
RTVSPropertyOp44
 70
     1
102
RTVSPropertyOp45
 70
     1
102
RTVSPropertyOp46
 70
     1
102
RTVSPropertyOp47
 70
     1
102
RTVSPropertyOp48
 70
     1
102
RTVSPropertyOp49
 70
     1
102
RTVSPropertyOp50
 70
     1
102
RTVSPropertyOp51
 70
     0
102
RTVSPropertyOp52
 70
     0
102
RTVSPropertyOp53
 70
     1
102
RTVSPropertyOp54
 70
     1
102
RTVSPropertyOp55
 70
     1
102
RTVSPropertyOp56
 70
     1
102
RTVSPropertyOp57
 70
     1
102
RTVSPost2010Prop28
280
     1
102
RTVSPost2010PropOp28
 70
     1
102
RTVSPost2010Prop29
280
     1
102
RTVSPost2010PropOp29
 70
     1
102
RTVSPost2010Prop30
280
     0
102
RTVSPost2010PropOp30
 70
     1
102
RTVSPost2010Prop31
280
     0
102
RTVSPost2010PropOp31
 70
     1
102
RTVSPost2010Prop32
280
     0
102
RTVSPost2010PropOp32
 70
     1
102
RTVSPost2010Prop33
280
     0
102
RTVSPost2010PropOp33
 70
     1
102
RTVSPost2010Prop34
280
     0
102
RTVSPost2010PropOp34
 70
     1
102
RTVSPost2010Prop35
280
     0
102
RTVSPost2010PropOp35
 70
     1
102
RTVSPost2010Prop36
280
     0
102
RTVSPost2010PropOp36
 70
     1
102
RTVSPost2010Prop37
 90
       50
102
RTVSPost2010PropOp37
 70
     1
102
RTVSPost2010Prop38
140
0.0
102
RTVSPost2010PropOp38
 70
     1
102
RTVSPost2010Prop39
140
1.0
102
RTVSPost2010PropOp39
 70
     1
102
RTVSPost2010Prop40
 90
        0
102
RTVSPost2010PropOp40
 70
     1
102
RTVSPost2010Prop41ColorIndex
 90
       18
102
RTVSPost2010Prop41ColorRGB
 90
        0
102
RTVSPost2010PropOp41
 70
     1
102
RTVSPost2010Prop42
 90
       50
102
RTVSPost2010PropOp42
 70
     1
102
RTVSPost2010Prop43
 90
        3
102
RTVSPost2010PropOp43
 70
     1
102
RTVSPost2010Prop44ColorIndex
 90
        5
102
RTVSPost2010Prop44ColorRGB
 90
      255
102
RTVSPost2010PropOp44
 70
     1
102
RTVSPost2010Prop45
280
     0
102
RTVSPost2010PropOp45
 70
     1
102
RTVSPost2010Prop46
 90
       50
102
RTVSPost2010PropOp46
 70
     1
102
RTVSPost2010Prop47
 90
       50
102
RTVSPost2010PropOp47
 70
     1
102
RTVSPost2010Prop48
 90
       50
102
RTVSPost2010PropOp48
 70
     1
102
RTVSPost2010Prop49
280
     0
102
RTVSPost2010PropOp49
 70
     1
102
RTVSPost2010Prop50
 90
       50
102
RTVSPost2010PropOp50
 70
     1
102
RTVSPost2010Prop51ColorIndex
 90
      256
102
RTVSPost2010Prop51ColorRGB
 90
-16777216
102
RTVSPost2010PropOp51
 70
     0
102
RTVSPost2010Prop52
140
1.0
102
RTVSPost2010PropOp52
 70
     0
102
RTVSPost2010Prop53
 90
        2
102
RTVSPost2010PropOp53
 70
     1
102
RTVSPost2010Prop54
  1
strokes_ogs.tif
102
RTVSPost2010PropOp54
 70
     1
102
RTVSPost2010Prop55
280
     0
102
RTVSPost2010PropOp55
 70
     1
102
RTVSPost2010Prop56
140
1.0
102
RTVSPost2010PropOp56
 70
     1
102
RTVSPost2010Prop57
140
1.0
102
RTVSPost2010PropOp57
 70
     1
  0
ENDSEC
  0
EOF
